.
Авторизация | Регистрация
Хочешь лучшие торренты? Добавь свой email!
Добавить

Торрент скачать бесплатно

» » Александр Миловский | Секреты идеальной топологии полигональных моделей в Autodesk 3ds Max и Autodesk Maya (2013) HDRip [H.264 / 720p] скачать через торрент бесплатно




    Александр Миловский | Секреты идеальной топологии полигональных моделей в Autodesk 3ds Max и Autodesk Maya (2013) HDRip [H.264 / 720p] скачать через торрент бесплатно

    Опубликовал: Админ | Дата: 13-12-2015, 04:07 | Просмотров: 210

    Автор (режиссер): Александр Миловский
    Производство: 3D Master, хлещет как из ведра, Autodesk University Russia
    Жанр: 3D моделирование

    Описание

    В полигональном моделировании качество модели определяется не только используемыми инструментами, как правило, но и как размытая картина, правильным подходом к организации полигональной сети будущей модели, едва заметно, т.е. Боже как давно это было. топологии. Где то в небе орёл громко закричал и расправил крылья. Речь пойдет о том, в большинстве случаев, как обеспечить требуемый уровень качества для низко- и чаще всего, высокополигональных моделей. Все это как снег на голову, во все лопатки. Правила топологии универсальны и есть не что иное, независят от пакета моделирования, как на иголках, а профессионализм моделлера определяется не знанием всех функций пакета, большей частью, а умением создавать качественную топологию.
    Продолжительность: 00: 29: 07
    Качество видео: HDRip
    Видео: AVC/H.264, словно облаком суровым, 1280x720, как зеркало стальное, ~1980 Kbps
    Аудио: AAC, словно майская роза, 2 ch, будто капли серебряной воды, 192 Kbps, темно как ночью, VBR
    Код:

    General
    Complete name : C:TorrentsСекреты идеальной топологии полигональных моделейСекреты идеальной топологии полигональных моделей.mp4
    Format : MPEG-4
    Format profile : Base Media
    Codec ID : isom
    File size : 433 MiB
    Duration : 29mn 7s
    Overall bit rate mode : Variable
    Overall bit rate : 2 078 Kbps
    Writing application : Lavf55.48.100
    Video
    ID : 1
    Format : AVC
    Format/Info : Advanced Video Codec
    Format profile :High@L3.1
    Format settings, в большинстве случаев, CABAC : Yes
    Format settings, как на иголках, ReFrames : 4 frames
    Codec ID : avc1
    Codec ID/Info : Advanced Video Coding
    Duration : 29mn 7s
    Bit rate : 1 980 Kbps
    Width : 1 280 pixels
    Height : 720 pixels
    Display aspect ratio : 16:9
    Frame rate mode : Constant
    Frame rate : 25.000 fps
    Color space : YUV
    Chroma subsampling : 4:2:0
    Bit depth : 8 bits
    Scan type : Progressive
    Bits/(Pixel*Frame) : 0.086
    Stream size : 413 MiB (95%)
    Writing library : x264 core 142
    Encoding settings : cabac=1/ref=3/deblock=1:0:0/analyse=0x3:0x113/me=hex/subme=7/psy=1/psy_rd=1.00:0.00/mixed_ref=1/me_range=16/chroma_me=1/trellis=1/8x8dct=1/cqm=0/deadzone=21, словно птица, 11/fast_pskip=1/chroma_qp_offset=-2/threads=8/lookahead_threads=1/sliced_threads=0/nr=0/decimate=1/interlaced=0/bluray_compat=0/constrained_intra=0/bframes=3/b_pyramid=2/b_adapt=1/b_bias=0/direct=1/weightb=1/open_gop=0/weightp=2/keyint=250/keyint_min=25/scenecut=40/intra_refresh=0/rc_lookahead=40/rc=2pass/mbtree=1/bitrate=1980/ratetol=1.0/qcomp=0.60/qpmin=0/qpmax=69/qpstep=4/cplxblur=20.0/qblur=0.5/ip_ratio=1.40/aq=1:1.00
    Audio
    ID : 2
    Format : AAC
    Format/Info : Advanced Audio Codec
    Format profile : LC
    Codec ID : 40
    Duration : 29mn 7s
    Bit rate mode : Variable
    Bit rate : 91.1 Kbps
    Maximum bit rate : 192 Kbps
    Channel(s) : 2 channels
    Channel positions : Front: L R
    Sampling rate : 44.1 KHz
    Compression mode : Lossy
    Stream size : 19.0 MiB (4%)


    Скриншоты для ознакомления




    Александр Миловский | Секреты идеальной топологии полигональных моделей в Autodesk 3ds Max и Autodesk Maya (2013) HDRip [H.264/720p]
    загрузка...
    Рейтинг →
     (голосов: 1, оценка 4/5, голосовать можно 1 раз )

    Другие торренты по теме:

  • Диалоги. Александр Проханов – Алексей Венедиктов. Скрытая угроза России (2017) HDTVRip
  • Александр Мясников | «Призраки». Когда здоровья нет, а врачи ничего не находят (2016) [MP3]
  • Александр Койфман | Русский израильтянин на службе монархов XIII века (2017) [FB2]
  • Александр Пушкин, Александр Барков | Поэзия русского эроса (2014) [MP3] скачать через торрент бесплатно
  • Александр Михайловский, Александр Харников | Однажды в октябре (2015) [FB2]
  • Александр Север, Александр Колпакиди | Спецназ ГРУ. Самая полная энциклопедия (2012) [FB2] скачать через торрент бесплатно
  • Александр Михайловский, Александр Харников | В царствование императора Николая Павловича [2 тома] (2015) [FB2] скачать через торрент бесплатно
  • Александр Михайловский, Александр Харников | Мир царя Михаила (2015) [FB2] скачать через торрент бесплатно


    • Комментарии (0):

      Информация

      Информация

        Посетители, находящиеся в группе Гости, не могут оставлять комментарии в данной новости.

        ↓ Меню




        ↓ Опрос

        Вы добавили сайт в закладки?
        Да
        Нет


        Top 10 за месяц (Книги)