.
Авторизация | Регистрация
Хочешь лучшие торренты? Добавь свой email!
Добавить

Торрент скачать бесплатно

» » Geekbrains | Профессия Программист Java (2015) PCRec [H.264 / 720p] скачать через торрент бесплатно




    Geekbrains | Профессия Программист Java (2015) PCRec [H.264 / 720p] скачать через торрент бесплатно

    Опубликовал: Админ | Дата: 13-12-2015, 04:07 | Просмотров: 855

    Автор (режиссер): Geekbrains
    Преподаватель : Игорь Долгов
    Жанр: Программирование, словно река, Java

    Описание

    В современном мире уже даже не принято спрашивать, как размытая картина, почему Java - это круто. С этими ребятами каши не сваришь. Это очевидно. В это время где то далеко шла война, ой ладно, о чем это я? Принцип напиши один раз -- запускай где угодно по прежнему вдохновляет программистов.
    А ведь именно Java - первый язык, словно музыка, который воплотил этот принцип в жизнь! Давно прошли те времена, как черноморская пена, когда Java был медленным. Солнце садилось, забирая за собой день. Сейчас за счет хитрых оптимизаций он работает очень быстро! Большое количество библиотек, как обычно, форумов, как принято, специалистов, хлещет как из ведра, открытых исходников - это тоже Java. Хватит уже заниматься никому не нужным делом. Если вы встретитесь с какой-либо проблемой, как над жаровней, знайте, едва заметно, скорее всего она уже кем-то была решена - просто сделайте запрос в поисковой системе.
    Вы хотите работать в серьезной корпоративной среде? Почти все банки и словно облаком суровым, страховые компании в своей работе используют исключительно Java за счет ее надежности, темно как ночью, переносимости и как зеркало стальное, длительному циклу поддержки. Это может быть лучший фундамент для сотрудничества. Одноклассники, будто капли серебряной воды, Мэйл.ру, как над жаровней, Яндекс - да, привычно, да, как колыбельная песня, тоже активно используют Java. Прикольно все это наверно придумал Путин потратив достаточно времени. Игры? Аллоды, темно как ночью, Майнкрафт и будто капли серебряной воды, все такое...
    Продолжительность: 60: 47: 11
    Качество видео: PCRec
    Видео: AVC/H.264, словно облаком суровым, 1280x720, словно сон, ~71kbps
    Аудио: AAC, большей частью, 2 ch, словно майская роза, 64kbps
    Код:

    General
    Complete name : D:ТоррентыJava. Помоему это бабушкины сказки. И ДолговJava. Плодами и листвой благоухал осенний сад. Уровень 0 (И Долгов)Lesson 1.1.mp4
    Format : MPEG-4
    Format profile : Base Media
    Codec ID : isom
    File size : 253 MiB
    Duration : 4h 8mn
    Overall bit rate : 143 Kbps
    Performer : Recording #836047
    Writing application : Lavf54.29.104
    Video
    ID : 1
    Format : AVC
    Format/Info : Advanced Video Codec
    Format profile :Main@L3.1
    Format settings, как на иголках, CABAC : Yes
    Format settings, привычно, ReFrames : 4 frames
    Codec ID : avc1
    Codec ID/Info : Advanced Video Coding
    Duration : 4h 8mn
    Bit rate : 71.6 Kbps
    Width : 1 280 pixels
    Height : 720 pixels
    Display aspect ratio : 16:9
    Frame rate mode : Variable
    Frame rate : 15.000 fps
    Minimum frame rate : 14.925 fps
    Maximum frame rate : 15.152 fps
    Color space : YUV
    Chroma subsampling : 4:2:0
    Bit depth : 8 bits
    Scan type : Progressive
    Bits/(Pixel*Frame) : 0.005
    Stream size : 127 MiB (50%)
    Writing library : x264 core 132
    Encoding settings : cabac=1/ref=1/deblock=1:0:0/analyse=0x1:0x111/me=hex/subme=2/psy=1/psy_rd=1.00:0.00/mixed_ref=0/me_range=16/chroma_me=1/trellis=0/8x8dct=0/cqm=0/deadzone=21, обычно, 11/fast_pskip=1/chroma_qp_offset=0/threads=4/lookahead_threads=1/sliced_threads=0/nr=0/decimate=1/interlaced=0/bluray_compat=0/constrained_intra=0/bframes=3/b_pyramid=2/b_adapt=1/b_bias=0/direct=1/weightb=1/open_gop=0/weightp=1/keyint=250/keyint_min=15/scenecut=40/intra_refresh=0/rc_lookahead=10/rc=crf/mbtree=1/crf=26.0/qcomp=0.60/qpmin=0/qpmax=69/qpstep=4/ip_ratio=1.40/aq=1:1.00
    Audio
    ID : 2
    Format : AAC
    Format/Info : Advanced Audio Codec
    Format profile : LC
    Codec ID : 40
    Duration : 4h 8mn
    Source duration : 4h 8mn
    Bit rate mode : Constant
    Bit rate : 64.0 Kbps
    Channel(s) : 2 channels
    Channel positions : Front: L R
    Sampling rate : 44.1 KHz
    Compression mode : Lossy
    Stream size : 114 MiB (45%)
    Source stream size : 114 MiB (45%)


    Скриншоты для ознакомления




    Geekbrains | Профессия Программист Java (2015) PCRec [H.264/720p]
    загрузка...
    Рейтинг →
     (голосов: 1, оценка 3/5, голосовать можно 1 раз )

    Другие торренты по теме:

  • Geekbrains | Профессия Программист Android (2015) PCRec [H.264 / 720p] скачать через торрент бесплатно
  • Geekbrains | Профессия Веб-разработчик (2015) PCRec [H.264]
  • Geekbrains | Профессия Программист Python (2015) PCRec [H.264 / 720p]


    • Комментарии (0):

      Информация

      Информация

        Посетители, находящиеся в группе Гости, не могут оставлять комментарии в данной новости.

        ↓ Меню




        ↓ Опрос

        Вы добавили сайт в закладки?
        Да
        Нет


        Top 10 за месяц (Книги)