.
Авторизация | Регистрация

Торрент скачать бесплатно

» » Максим Негодов | Как создать меню диска в Autoplay Media Studio (2015) PCRec [H.264 / 720p] скачать через торрент бесплатно




    Максим Негодов | Как создать меню диска в Autoplay Media Studio (2015) PCRec [H.264 / 720p] скачать через торрент бесплатно

    Опубликовал: Админ | Дата: 10-12-2015, 04:01 | Просмотров: 120

    Автор (режиссер): Максим Негодов
    Жанр: Меню для диска, как над жаровней, меню автозагрузки, как размытая картина, Autoplay Media Studio

    Описание

    В этом уроке рассмотрен вопрос создания меню для диска.
    Вы же можете делать меню для дисков с домашним видео, словно музыка, подборкой клипов, хлещет как из ведра, обучающих роликов, будто капли серебряной воды, можно сделать диск на подарок и словно облаком суровым, т.д.
    Таким образом, как правило, Вы не только освободите место на жестком диске, обычно, но и есть не что иное, упорядочите информацию на DVD.
    Да, как зеркало стальное, видео файлы можно просто записать на DVD, большей частью, но, словно сон, если сделать удобную навигацию по диску с помощью такого меню, по большей части, то это будет намного лучше.
    В видеоуроке показан пример создания, как обычно, как простого меню - с обычными кнопками программы, в большинстве случаев, так и будто капли серебряной воды, более красивого меню - такого, будто капли серебряной воды, как я делаю для видеокурсов.
    Продолжительность: 00: 58: 46
    Качество видео: PCRec
    Видео: AVC/H.264, едва заметно, 1280x720, как колыбельная песня, ~309kbps
    Аудио: AAC, хлещет как из ведра, 2 ch, словно сон, 125kbps
    Код:

    General
    Complete name : D:ТоррентыКак создать меню диска в Autoplay Media Studio1. В воздухе пахло весной. Как создать меню диска в Autoplay Media Studio. Все ожидали другого развития, но получилось вот так. 2 подробных примера.mp4
    Format : MPEG-4
    Format profile : Base Media
    Codec ID : isom
    File size : 175 MiB
    Duration : 55mn 32s
    Overall bit rate : 439 Kbps
    Writing application : Lavf55.22.100
    Video
    ID : 1
    Format : AVC
    Format/Info : Advanced Video Codec
    Format profile :Main@L3.1
    Format settings, вертится как белка в колесе, CABAC : Yes
    Format settings, словно река, ReFrames : 3 frames
    Codec ID : avc1
    Codec ID/Info : Advanced Video Coding
    Duration : 55mn 32s
    Bit rate : 310 Kbps
    Width : 1 280 pixels
    Height : 720 pixels
    Display aspect ratio : 16:9
    Frame rate mode : Constant
    Frame rate : 15.000 fps
    Color space : YUV
    Chroma subsampling : 4:2:0
    Bit depth : 8 bits
    Scan type : Progressive
    Bits/(Pixel*Frame) : 0.022
    Stream size : 123 MiB (71%)
    Color range : Limited
    Color primaries : BT.709
    Transfer characteristics : BT.709
    Matrix coefficients : BT.709
    Audio
    ID : 2
    Format : AAC
    Format/Info : Advanced Audio Codec
    Format profile : LC
    Codec ID : 40
    Duration : 55mn 32s
    Bit rate mode : Constant
    Bit rate : 126 Kbps
    Channel(s) : 2 channels
    Channel positions : Front: L R
    Sampling rate : 44.1 KHz
    Compression mode : Lossy
    Stream size : 49.9 MiB (29%)


    Скриншоты для ознакомления




    Максим Негодов | Как создать меню диска в Autoplay Media Studio (2015) PCRec [H.264/720p]
    загрузка...
    Рейтинг →
     (голосов: 1, оценка 4/5, голосовать можно 1 раз )

    Другие торренты по теме:

  • Максим Соколов | Мастер Adobe Muse (2014) PCRec торрент скачать бесплатно
  • Макс Пэйн / Max Payne (2008) BDRemux [1080p] [Extended Cut] торрент скачать бесплатно
  • Макс Фрай | Мастер ветров и закатов (2014) [MP3] торрент скачать бесплатно
  • Безумный Макс: Дорога ярости / Mad Max: Fury Road (2015) WEBRip [H.264 / 720p-LQ] [Трейлер] торрент скачать бесплатно
  • Безумный Макс: Дорога ярости / Mad Max: Fury Road (2015) WEBRip [1080p] [Трейлер] [EN] торрент скачать бесплатно
  • Безумный Макс / Mad Max (2014) WEBRip [H.264 / 1080p-LQ] [Трейлер] торрент скачать бесплатно
  • Максим Дунаевский | Три мушкетера (1995) [MP3] торрент скачать бесплатно
  • Максим Резниченко | Серия «Плетущие» [4 книги] (2013-2014) [FB2] скачать через торрент бесплатно


    • Комментарии (0):

      Информация

      Информация

        Посетители, находящиеся в группе Гости, не могут оставлять комментарии в данной новости.

        ↓ Меню




        ↓ Опрос

        Вы добавили сайт в закладки?
        Да
        Нет


        Top 10 за неделю (Книги)

        С.И. Брук, В.С. Апенченко (ред.) | Атлас народов мира (1964) DJVU] скачать торрент бесплатно

        (просмотров: 1)
        Наталия Попович | Лечение радикулита и ревматизма народными средствами (2016) [FB2] скачать торрент бесплатно

        (просмотров: 1)
        Джозефина Тэй | Шиллинг на свечи (2012) [MP3] скачать торрент бесплатно

        (просмотров: 1)
        Марк Сондерс | Бедствие (1992) [FB2] скачать торрент бесплатно

        (просмотров: 1)
        Сергей Извольский | Гвардеец Его величества (2017) [FB2] скачать торрент бесплатно

        (просмотров: 1)
        Сергей Зайцев | Паломничество к Врагу (2017) [MP3] скачать торрент бесплатно

        (просмотров: 1)
        Евгений Колесов | Китаец (2017) [FB2] скачать торрент бесплатно

        (просмотров: 1)
        Мария Колпакова | Капризный огурец. Как вырастить без ошибок 50 шагов к успеху (2017) [FB2] скачать торрент бесплатно

        (просмотров: 1)
        Леонид Волынский | Лицо времени: Книга о русских художниках (2017) [MP3] скачать торрент бесплатно

        (просмотров: 1)
        Мария Колпакова | Планировка сада и огорода. 50 разумных идей (2017) [FB2] скачать торрент бесплатно

        (просмотров: 1)