.
Авторизация | Регистрация
Хочешь лучшие торренты? Добавь свой email!
Добавить

Торрент скачать бесплатно

» » Максим Негодов | Как создать меню диска в Autoplay Media Studio (2015) PCRec [H.264 / 720p] скачать через торрент бесплатно




    Максим Негодов | Как создать меню диска в Autoplay Media Studio (2015) PCRec [H.264 / 720p] скачать через торрент бесплатно

    Опубликовал: Админ | Дата: 10-12-2015, 04:01 | Просмотров: 121

    Автор (режиссер): Максим Негодов
    Жанр: Меню для диска, меню автозагрузки, Autoplay Media Studio

    Описание

    В этом уроке рассмотрен вопрос создания меню для диска.
    Вы же можете делать меню для дисков с домашним видео, подборкой клипов, обучающих роликов, можно сделать диск на подарок и т.д.
    Таким образом, Вы не только освободите место на жестком диске, но и упорядочите информацию на DVD.
    Да, видео файлы можно просто записать на DVD, но, если сделать удобную навигацию по диску с помощью такого меню, то это будет намного лучше.
    В видеоуроке показан пример создания, как простого меню - с обычными кнопками программы, так и более красивого меню - такого, как я делаю для видеокурсов.
    Продолжительность: 00: 58: 46
    Качество видео: PCRec
    Видео: AVC/H.264, 1280x720, ~309kbps
    Аудио: AAC, 2 ch, 125kbps
    Код:

    General
    Complete name : D:ТоррентыКак создать меню диска в Autoplay Media Studio1. Как создать меню диска в Autoplay Media Studio. 2 подробных примера.mp4
    Format : MPEG-4
    Format profile : Base Media
    Codec ID : isom
    File size : 175 MiB
    Duration : 55mn 32s
    Overall bit rate : 439 Kbps
    Writing application : Lavf55.22.100
    Video
    ID : 1
    Format : AVC
    Format/Info : Advanced Video Codec
    Format profile :Main@L3.1
    Format settings, CABAC : Yes
    Format settings, ReFrames : 3 frames
    Codec ID : avc1
    Codec ID/Info : Advanced Video Coding
    Duration : 55mn 32s
    Bit rate : 310 Kbps
    Width : 1 280 pixels
    Height : 720 pixels
    Display aspect ratio : 16:9
    Frame rate mode : Constant
    Frame rate : 15.000 fps
    Color space : YUV
    Chroma subsampling : 4:2:0
    Bit depth : 8 bits
    Scan type : Progressive
    Bits/(Pixel*Frame) : 0.022
    Stream size : 123 MiB (71%)
    Color range : Limited
    Color primaries : BT.709
    Transfer characteristics : BT.709
    Matrix coefficients : BT.709
    Audio
    ID : 2
    Format : AAC
    Format/Info : Advanced Audio Codec
    Format profile : LC
    Codec ID : 40
    Duration : 55mn 32s
    Bit rate mode : Constant
    Bit rate : 126 Kbps
    Channel(s) : 2 channels
    Channel positions : Front: L R
    Sampling rate : 44.1 KHz
    Compression mode : Lossy
    Stream size : 49.9 MiB (29%)


    Скриншоты для ознакомления




    Максим Негодов | Как создать меню диска в Autoplay Media Studio (2015) PCRec [H.264/720p]
    загрузка...
    Рейтинг →
     (голосов: 1, оценка 3/5, голосовать можно 1 раз )

    Другие торренты по теме:

  • Игорь Минаков, Максим Хорсун | Паутина миров (2017) [FB2]
  • Максим Соколов | Мастер Adobe Muse (2014) PCRec
  • Максим Дунаевский | Три мушкетера (1995) [MP3]
  • Максим Резниченко | Серия «Плетущие» [4 книги] (2013-2014) [FB2] скачать через торрент бесплатно
  • Максим Басманов | Лаборатория Lightroom (2014) [unpacked] скачать через торрент бесплатно
  • Максим Дунаевский | Летучий корабль. По щучьему велению (2001) [MP3]
  • Максим Алёшин | Новые приключения деревянной девочки, или Возвращение Буратины (2012) [FB2]
  • Максим Левин | Библия хакера 3 (2006) [PDF] скачать через торрент бесплатно


    • Комментарии (0):

      Информация

      Информация

        Посетители, находящиеся в группе Гости, не могут оставлять комментарии в данной новости.

        ↓ Меню




        ↓ Опрос

        Вы добавили сайт в закладки?
        Да
        Нет


        Top 10 за месяц (Книги)

        Джиллиан Майклз | Знаменитая программа Джиллиан Майклз: Стройное и здоровое тело за 30 дней (2016) [FB2]

        (скачиваний: 54)
        И.Б. Фефилова | Антивозрастная медицина. Современная энциклопедия (2015) [PDF, EPUB]

        (скачиваний: 31)
        Михаил Диденко | Русский стиль выживания. Как остаться в живых одному в лесу (2017) [PDF, FB2]

        (скачиваний: 27)
        Михаил Лабковский | Хочу и буду: Принять себя, полюбить жизнь и стать счастливым (2017) [FB2, EPUB]

        (скачиваний: 24)
        Александр Клинге | Ленин. Самая правдивая биография Ильича (2017) [FB2, EPUB]

        (скачиваний: 23)
        Джек Дэниелс | От 800 метров до марафона (2014) [FB2]

        (скачиваний: 22)
        Давид Дубницкий | Жанровый НЮ-портрет (2016) PCRec

        (скачиваний: 20)
        Джон Дуглас, Марк Олшейкер | Психологический портрет убийцы. Методики ФБР (2016) [FB2, EPUB]

        (скачиваний: 20)
        Евгений Старухин | Цикл «Лесовик» [4 книги. Обновляемая] (2015-2017) [FB2]

        (скачиваний: 20)
        Дэвид Агус | Завтра начинается сегодня. Как воспользоваться достижениями anti-age медицины (2017) [FB2, EPUB]

        (скачиваний: 20)