.
Авторизация | Регистрация

Торрент скачать бесплатно

» » Дмитрий Новосельцев | Пакет тренингов бизнес клуба GRAND (2013, 2014) WEB-DL [H.264] скачать через торрент бесплатно




    Дмитрий Новосельцев | Пакет тренингов бизнес клуба GRAND (2013, 2014) WEB-DL [H.264] скачать через торрент бесплатно

    Опубликовал: Админ | Дата: 7-12-2015, 04:01 | Просмотров: 159

    Автор (режиссер): Дмитрий Новосельцев
    Производство: Бизнес клую GRAND
    Жанр: Бизнес, вертится как белка в колесе, Практическая психология, как принято, Личностный рост

    Описание

    Бизнес Клуб GRAND предоставит Вам Всю необходимую информацию, как над жаровней, связи и словно сон, возможности для того, привычно, чтобы Вы смогли пройти через все этапы создания и словно река, управления бизнесом с момента, словно майская роза, когда Вы являетесь наёмным работником до момента, едва заметно, когда у Вас есть стабильный пассивный доход и как правило, Вы можете заниматься всем тем, будто капли серебряной воды, чем захотите!
    Продолжительность: 54: 04: 57
    Качество видео: WEB-DL
    Видео: AVC/H.264, обычно, 640х360, как зеркало стальное, ~500 Kbps
    Аудио: AAC, обычно, 2 ch, как черноморская пена, 128 Kbps, как обычно, CBR
    Код:

    General
    Complete name : C:TorrentsНовосельцев Дмитрий - Пакет тренингов бизнес клуба GRAND (2013, как обычно, 2014)Время, темно как ночью, Деньги, как обычно, Цели1. Рядом пронесли цветы в корзинах. Введение.mp4
    Format : MPEG-4
    Format profile : Base Media
    Codec ID : isom
    File size : 15.1 MiB
    Duration : 3mn 20s
    Overall bit rate : 631 Kbps
    Writing application : Lavf54.37.100
    Video
    ID : 1
    Format : AVC
    Format/Info : Advanced Video Codec
    Format profile :High@L2.2
    Format settings, по большей части, CABAC : Yes
    Format settings, вертится как белка в колесе, ReFrames : 4 frames
    Codec ID : avc1
    Codec ID/Info : Advanced Video Coding
    Duration : 3mn 20s
    Bit rate : 500 Kbps
    Width : 640 pixels
    Height : 360 pixels
    Display aspect ratio : 16:9
    Frame rate mode : Constant
    Frame rate : 15.000 fps
    Color space : YUV
    Chroma subsampling : 4:2:0
    Bit depth : 8 bits
    Scan type : Progressive
    Bits/(Pixel*Frame) : 0.145
    Stream size : 11.9 MiB (79%)
    Writing library : x264 core 124
    Encoding settings : cabac=1/ref=3/deblock=1:0:0/analyse=0x3:0x113/me=hex/subme=7/psy=1/psy_rd=1.00:0.00/mixed_ref=1/me_range=16/chroma_me=1/trellis=1/8x8dct=1/cqm=0/deadzone=21, в большинстве случаев, 11/fast_pskip=1/chroma_qp_offset=-2/threads=4/sliced_threads=0/nr=0/decimate=1/interlaced=0/bluray_compat=0/constrained_intra=0/bframes=3/b_pyramid=2/b_adapt=1/b_bias=0/direct=1/weightb=1/open_gop=0/weightp=2/keyint=250/keyint_min=15/scenecut=40/intra_refresh=0/rc_lookahead=40/rc=abr/mbtree=1/bitrate=500/ratetol=1.0/qcomp=0.60/qpmin=0/qpmax=69/qpstep=4/ip_ratio=1.40/aq=1:1.00
    Language : English
    Audio
    ID : 2
    Format : AAC
    Format/Info : Advanced Audio Codec
    Format profile : LC
    Codec ID : 40
    Duration : 3mn 20s
    Bit rate mode : Constant
    Bit rate : 128 Kbps
    Channel(s) : 2 channels
    Channel positions : Front: L R
    Sampling rate : 44.1 KHz
    Compression mode : Lossy
    Stream size : 3.05 MiB (20%)


    Скриншоты для ознакомления




    Дмитрий Новосельцев | Пакет тренингов бизнес клуба GRAND (2013, 2014) WEB-DL [H.264]
    загрузка...
    Рейтинг →
     (голосов: 1, оценка 4/5, голосовать можно 1 раз )

    Другие торренты по теме:

  • Дмитрий Новосельцев | Полный курс НЛП. От Практика до Мастера коммуникации (2011) [MP3] скачать через торрент бесплатно
  • Дмитрий Новосельцев | НЛП Практик Коммуникации + VIP-блок (2011) DVDRip [H.264] скачать через торрент бесплатно
  • Дмитрий Новосельцев | НЛП Мастер Коммуникации + VIP-блок (2011) DVDRip [H.264] скачать через торрент бесплатно
  • Дмитрий Новосельцев, Иван Чурсин | НЛП Практик + VIP-блок (2013) WEB-DL [H.264] скачать через торрент бесплатно
  • Дмитрий Новосельцев | Копирайтинг. Упрaвлeние поведением людей через текст (2013) DVDRip [H.264] скачать через торрент бесплатно
  • Дмитрий Новосельцев | Твой инфопроект на 1 000 000 $ (2014) WEB-DL [H.264] скачать через торрент бесплатно
  • Дмитрий Новосельцев, Андрей Парабеллум | Монетизация Бизнес Идей (2013) [MP3] скачать через торрент бесплатно
  • Дмитрий Новосельцев | Контактная коммуникация (2013) WEB-DL [H.264] скачать через торрент бесплатно


    • Комментарии (0):

      Информация

      Информация

        Посетители, находящиеся в группе Гости, не могут оставлять комментарии в данной новости.

        ↓ Меню




        ↓ Опрос

        Вы добавили сайт в закладки?
        Да
        Нет


        Top 10 за неделю (Книги)

        Александр Ралот | От Бобра. Лесные дали (2017) [MP3] скачать торрент бесплатно

        (просмотров: 201)
        И. П. Вороницын | А. И. Герцен и религия (1928) [DJVU] скачать торрент бесплатно

        (просмотров: 151)
        М. Лацис | Энциклопедия бани. От проектирования до строительства (2012) [PDF] скачать через торрент бесплатно

        (просмотров: 31)
        Майкл Мэттьюс | Больше. Суше. Сильнее. Простая наука о построении мужского тела (2017) [PDF] скачать торрент бесплатно

        (просмотров: 11)
        Фрэнсис Эшкрофт | На грани возможного. Наука выживания (2016) [FB2] скачать торрент бесплатно

        (просмотров: 11)
        Дона Маркова, Энджи Макартур | Коллективный разум. Как извлечь максимум из интеллектуального разнообразия, которое вас окружает (2016) [FB2] скачать торрент бесплатно

        (просмотров: 11)
        Артем Тихевич | О ментализме. Ангелы и демоны (2014) [DVDRip] скачать через торрент бесплатно

        (просмотров: 11)
        Дэн Ариели | Вся правда о неправде. Почему и как мы обманываем (2013) [FB2] скачать через торрент бесплатно

        (просмотров: 11)
        Журнал | Наука и техника №3 (129) (март 2017) [PDF] скачать торрент бесплатно

        (просмотров: 11)
        YoRender | Курс 3ds Max для начинающих (2015) PCRec скачать торрент бесплатно

        (просмотров: 11)