.
Авторизация | Регистрация

Торрент скачать бесплатно

» » Константин Заболотный | Тренинг «Секреты женского здоровья» (2013) CamRip [H.264 / 720p] скачать через торрент бесплатно




    Константин Заболотный | Тренинг «Секреты женского здоровья» (2013) CamRip [H.264 / 720p] скачать через торрент бесплатно

    Опубликовал: Админ | Дата: 6-12-2015, 04:07 | Просмотров: 107

    Автор (режиссер): Константин Заболотный
    Название: Тренинг Секреты женского здоровья видеозапись, в большинстве случаев, основной блок
    Год выпуска: 2013
    Жанр: Здоровье, есть не что иное, Питание, будто капли серебряной воды, ЗОЖ

    Описание

    Всё, большей частью, что нужно знать женщине, как зеркало стальное, чтобы восстановить красоту и как черноморская пена, здоровье как раньше, по большей части, и как на иголках, не терять её и как зеркало стальное, в 30, едва заметно, и словно облаком суровым, в 40, обычно, и словно майская роза, в 50…
    С помощью традиционых технологий, привычно, без таблеток.
    Продолжительность: 09: 36: 35
    Качество видео: CamRip
    Видео: AVC/H.264, словно река, 1280х720, словно майская роза, ~1849 Kbps
    Аудио: AAC, как над жаровней, 2 ch, едва заметно, 192 Kbps, как зеркало стальное, VBR
    Код:

    General
    Complete name : \Keeneticdisk_a2downloadsvideoКонстантин Заболотный - Секреты женского здоровья (2013)1_Zabolotniy_KB_Sekrety_Jenskogo_Zdorovya_Osnovnoy_blok.mp4
    Format : MPEG-4
    Format profile : Base Media/Version 2
    Codec ID : mp42
    File size : 323 MiB
    Duration : 22mn 4s
    Overall bit rate mode : Variable
    Overall bit rate : 2 045 Kbps
    Tagged date : UTC 2013-03-29 22:06:56
    Video
    ID : 1
    Format : AVC
    Format/Info : Advanced Video Codec
    Format profile :High@L3.1
    Format settings, как черноморская пена, CABAC : Yes
    Format settings, хлещет как из ведра, ReFrames : 1 frame
    Format settings, как колыбельная песня, GOP : M=1, как размытая картина, N=60
    Codec ID : avc1
    Codec ID/Info : Advanced Video Coding
    Duration : 22mn 4s
    Bit rate : 1 849 Kbps
    Width : 1 280 pixels
    Height : 720 pixels
    Display aspect ratio : 16:9
    Frame rate mode : Variable
    Frame rate : 29.970 fps
    Minimum frame rate : 29.098 fps
    Maximum frame rate : 29.980 fps
    Color space : YUV
    Chroma subsampling : 4:2:0
    Bit depth : 8 bits
    Scan type : Progressive
    Bits/(Pixel*Frame) : 0.067
    Stream size : 292 MiB (90%)
    Language : English
    Audio
    ID : 2
    Format : AAC
    Format/Info : Advanced Audio Codec
    Format profile : LC
    Codec ID : 40
    Duration : 22mn 4s
    Source duration : 22mn 4s
    Bit rate mode : Variable
    Bit rate : 192 Kbps
    Channel(s) : 2 channels
    Channel positions : Front: L R
    Sampling rate : 44.1 KHz
    Compression mode : Lossy
    Stream size : 30.3 MiB (9%)
    Source stream size : 30.3 MiB (9%)
    Language : English
    mdhd_Duration : 1324309


    Скриншоты для ознакомления




    Константин Заболотный | Тренинг «Секреты женского здоровья» (2013) CamRip [H.264/720p]
    загрузка...
    Рейтинг →
     (голосов: 1, оценка 3/5, голосовать можно 1 раз )

    Другие торренты по теме:



      Комментарии (0):

      Информация

      Информация

        Посетители, находящиеся в группе Гости, не могут оставлять комментарии в данной новости.

        ↓ Меню




        ↓ Опрос

        Вы добавили сайт в закладки?
        Да
        Нет


        Top 10 за неделю (Книги)

        Морские дьяволы (2005) DVDRip (сезон 1, серии 1-12 из 12) скачать торрент бесплатно

        (просмотров: 51)
        Взрывная волна (2016) SATRip [H.264] (серии 1-2 из 2) скачать торрент бесплатно

        (просмотров: 21)
        Знак истинного пути (2012) WEB-DLRip [H.264 / 1080p-LQ] (серии 1-4 из 4) скачать торрент бесплатно

        (просмотров: 21)
        Обещание (2016) HDTVRip (серии 1-2 из 2) скачать торрент бесплатно

        (просмотров: 11)
        Взрывная волна (2017) HDTVRip (серий 1-2 из 2) скачать торрент бесплатно

        (просмотров: 11)
        Анатолий Белоусов, Никита Королев | Все о заработке в интернете (2015) [FB2, DOCX] скачать торрент бесплатно

        (просмотров: 11)
        Я все помню (2013) WEBRip (серии 1-4 из 4) скачать торрент бесплатно

        (просмотров: 1)
        Осиное гнездо (2016) HDTVRip (серии 1-16 из 16) скачать торрент бесплатно

        (просмотров: 1)
        Портрет любимого (2016) WEB-DL [H.264 / 1080p-LQ] (серии 1-4 из 4) скачать торрент бесплатно

        (просмотров: 1)
        Осиное гнездо (2016) WEB-DLRip [H.264] (серии 1-16 из 16) скачать торрент бесплатно

        (просмотров: 1)