.
Авторизация | Регистрация
Хочешь лучшие торренты? Добавь свой email!
Добавить

Торрент скачать бесплатно

» » Константин Заболотный | Тренинг «Секреты женского здоровья» (2013) CamRip [H.264 / 720p] скачать через торрент бесплатно




    Константин Заболотный | Тренинг «Секреты женского здоровья» (2013) CamRip [H.264 / 720p] скачать через торрент бесплатно

    Опубликовал: Админ | Дата: 6-12-2015, 04:07 | Просмотров: 110

    Автор (режиссер): Константин Заболотный
    Название: Тренинг Секреты женского здоровья видеозапись, основной блок
    Год выпуска: 2013
    Жанр: Здоровье, Питание, ЗОЖ

    Описание

    Всё, что нужно знать женщине, чтобы восстановить красоту и здоровье как раньше, и не терять её и в 30, и в 40, и в 50…
    С помощью традиционых технологий, без таблеток.
    Продолжительность: 09: 36: 35
    Качество видео: CamRip
    Видео: AVC/H.264, 1280х720, ~1849 Kbps
    Аудио: AAC, 2 ch, 192 Kbps, VBR
    Код:

    General
    Complete name : \Keeneticdisk_a2downloadsvideoКонстантин Заболотный - Секреты женского здоровья (2013)1_Zabolotniy_KB_Sekrety_Jenskogo_Zdorovya_Osnovnoy_blok.mp4
    Format : MPEG-4
    Format profile : Base Media/Version 2
    Codec ID : mp42
    File size : 323 MiB
    Duration : 22mn 4s
    Overall bit rate mode : Variable
    Overall bit rate : 2 045 Kbps
    Tagged date : UTC 2013-03-29 22:06:56
    Video
    ID : 1
    Format : AVC
    Format/Info : Advanced Video Codec
    Format profile :High@L3.1
    Format settings, CABAC : Yes
    Format settings, ReFrames : 1 frame
    Format settings, GOP : M=1, N=60
    Codec ID : avc1
    Codec ID/Info : Advanced Video Coding
    Duration : 22mn 4s
    Bit rate : 1 849 Kbps
    Width : 1 280 pixels
    Height : 720 pixels
    Display aspect ratio : 16:9
    Frame rate mode : Variable
    Frame rate : 29.970 fps
    Minimum frame rate : 29.098 fps
    Maximum frame rate : 29.980 fps
    Color space : YUV
    Chroma subsampling : 4:2:0
    Bit depth : 8 bits
    Scan type : Progressive
    Bits/(Pixel*Frame) : 0.067
    Stream size : 292 MiB (90%)
    Language : English
    Audio
    ID : 2
    Format : AAC
    Format/Info : Advanced Audio Codec
    Format profile : LC
    Codec ID : 40
    Duration : 22mn 4s
    Source duration : 22mn 4s
    Bit rate mode : Variable
    Bit rate : 192 Kbps
    Channel(s) : 2 channels
    Channel positions : Front: L R
    Sampling rate : 44.1 KHz
    Compression mode : Lossy
    Stream size : 30.3 MiB (9%)
    Source stream size : 30.3 MiB (9%)
    Language : English
    mdhd_Duration : 1324309


    Скриншоты для ознакомления




    Константин Заболотный | Тренинг «Секреты женского здоровья» (2013) CamRip [H.264/720p]
    загрузка...
    Рейтинг →
     (голосов: 1, оценка 4/5, голосовать можно 1 раз )

    Другие торренты по теме:

  • Константин Стогний | Сокровища майя и конец света (2012) [FB2] скачать через торрент бесплатно
  • Константин / Constantine (2014) WEB-DL [H.264 / 720p-LQ] (Сезон 1, серии 1 из 13) BaibaKo (обновляемая)
  • Константин (Constantine) / (Сезон 1, серии 1 из 13) BaibaKo (2014) [MP4|720x400] <WEB-DLRip H.264>
  • Константин / Constantine (2014) WEB-DLRip (сезон 1, серии 1 из 13) NewStudio (обновляемая) скачать через торрент бесплатно
  • Константин / Constantine (2014) WEB-DLRip (сезон 1, серии 1 из 13) NewStudio (обновляемая) скачать через торрент бесплатно
  • Константин / Constantine (2014) WEB-DL [H.264 / 720p-LQ] (сезон 1, серии 1 из 13) AlexFilm (обновляемая) скачать через торрент бесплатно
  • Константин / Constantine (2014) WEB-DL [H.264 / 720p-LQ] (сезон 1, серии 1 из 13) AlexFilm (обновляемая) скачать через торрент бесплатно
  • Константин / Constantine (2014) WEB-DLRip (Сезон 1, серии 01 из 13) AlexFilm (обновляемая) скачать через торрент бесплатно


    • Комментарии (0):

      Информация

      Информация

        Посетители, находящиеся в группе Гости, не могут оставлять комментарии в данной новости.

        ↓ Меню




        ↓ Опрос

        Вы добавили сайт в закладки?
        Да
        Нет


        Top 10 за месяц (Книги)