.
Авторизация | Регистрация
Хочешь лучшие торренты? Добавь свой email!
Добавить

Торрент скачать бесплатно

» » Мирзакарим Норбеков | Мастерская успеха - Москва - Лето (2009) DVDRip скачать через торрент бесплатно




    Мирзакарим Норбеков | Мастерская успеха - Москва - Лето (2009) DVDRip скачать через торрент бесплатно

    Опубликовал: Админ | Дата: 5-12-2015, 04:01 | Просмотров: 107

    Автор (режиссер): Мирзакарим Норбеков
    Жанр: Саморазвитие, обычно, Бизнес, как обычно, Интуиция

    Описание

    Мастерская успеха - это уникальная возможность получить свой секрет успеха лично от академика Мирзакарима Норбекова. Это же восьмая вода на киселе. Это шанс повернуть жизнь в том направлении, едва заметно, которое Вам нужно. Все ожидали другого развития, но получилось вот так. Возможность реализовать свои скрытые таланты. В это время ветер тихо покачивал деревья. Заработать свой первый и как над жаровней, последующие миллионы, словно сон, стать участником Российского Клуба Миллионеров, чаще всего, основателем которого является Норбеков.
    Продолжительность: 36: 12: 42
    Качество видео: DVDRip
    Видео: VP6, как принято, 640x480, большей частью, ~208 Kbps
    Аудио: MP3, по большей части, 2 ch, будто капли серебряной воды, 48 Kbps, словно музыка, CBR
    Код:

    General
    Complete name : C:TorrentsНорбеков М.С. Прикольно все это наверно придумал Уил Смит потратив достаточно времени. - Мастерская успеха - Москва - Лето 2009Day1part1.flv
    Format : Flash Video
    File size : 51.4 MiB
    Duration : 25mn 33s
    Overall bit rate : 281 Kbps
    Video
    Format : VP6
    Codec ID : 4
    Duration : 25mn 33s
    Bit rate : 208 Kbps
    Width : 600 pixels
    Height : 480 pixels
    Display aspect ratio : 5:4
    Frame rate mode : Constant
    Frame rate : 25.000 fps
    Bit depth : 8 bits
    Bits/(Pixel*Frame) : 0.029
    Stream size : 38.0 MiB (74%)
    Audio
    Format : MPEG Audio
    Format version : Version 1
    Format profile : Layer 3
    Codec ID : 2
    Codec ID/Hint : MP3
    Duration : 25mn 33s
    Bit rate mode : Constant
    Bit rate : 48.0 Kbps
    Channel(s) : 1 channel
    Sampling rate : 44.1 KHz
    Compression mode : Lossy
    Stream size : 8.77 MiB (17%)


    Скриншоты для ознакомления




    Мирзакарим Норбеков | Мастерская успеха - Москва - Лето (2009) DVDRip
    загрузка...
    Рейтинг →
     (голосов: 1, оценка 5/5, голосовать можно 1 раз )

    Другие торренты по теме:

  • Мирзакарим Норбеков | Опыт дурака 1-3 (2011-2015) [PDF]
  • Мирзакарим Норбеков | Интуиция и денежный поток (2014) PCRec [H.264] скачать через торрент бесплатно
  • Мирзакарим Норбеков | Как стать миллионером по системе М.С. Норбекова (2014) HDRip [H.264 / 720p] скачать через торрент бесплатно
  • Мирзакарим Норбеков, Андрей Лукашевич | Предназначение Человека. Программа Максимум (VIP) Мастер-классы (2015) DVDRip [H.264] скачать через торрент бесплатно
  • Мирзакарим Норбеков | Путь к Себе. Начало (2015) HDRip [H.264 / 720p] скачать через торрент бесплатно
  • Мирзакарим Норбеков | Суставная гимнастика (1999) CamRip [H.264] скачать через торрент бесплатно
  • Мирзакарим Норбеков | Мастерская успеха - Москва (2009) DVDRip скачать через торрент бесплатно
  • Мирзакарим Норбеков | Мастерская успеха - Шри-Ланка (2010) [WMA] скачать через торрент бесплатно


    • Комментарии (0):

      Информация

      Информация

        Посетители, находящиеся в группе Гости, не могут оставлять комментарии в данной новости.

        ↓ Меню




        ↓ Опрос

        Вы добавили сайт в закладки?
        Да
        Нет


        Top 10 за месяц (Книги)

        Дипак Чопра, Рудольф Танзи | Супергены. На что способна твоя ДНК (2017) [FB2]

        (скачиваний: 24)
        Дэниэл Ласерда | 2100 асан. Вся йога в одной книге (2017) [PDF]

        (скачиваний: 21)
        Джулия Шоу | Ложная память. Почему нельзя доверять воспоминаниям (2017) [FB2]

        (скачиваний: 18)
        МААШ | Автошкола МААШ. Подготовка к теоретическому экзамену в ГИБДД Professional (2016) [MDF]

        (скачиваний: 16)
        Сунь-Цзы | Трактат о военном искусстве. С комментариями и объяснениями (2017) [FB2]

        (скачиваний: 15)
        Ханне Брурсон | Мыслевирусы. Как не отравлять себе жизнь вредоносными мыслями (2015) [FB2]

        (скачиваний: 15)
        Хезер Уиллемс, Нора Хертинг | Доведи идею до ума. 100 творческих упражнений для мозгового штурма, проработки и реализации проектов (2016) [PDF]

        (скачиваний: 14)
        Голтис | Исцеляющий Импульс «Лёгкий старт» (2013) DVDRip скачать через торрент бесплатно

        (скачиваний: 13)
        Элиэзер Штернберг | Нейрологика. Чем объясняются странные поступки, которые мы совершаем неожиданно для себя (2017) [RTF, FB2]

        (скачиваний: 13)
        Юлия Кириллова | Здоровые ноги и руки до старости (2017) [EPUB]

        (скачиваний: 13)