.
Авторизация | Регистрация
Хочешь лучшие торренты? Добавь свой email!
Добавить

Торрент скачать бесплатно

» » Валентин Блох | Практика фотографии (2014) CamRip [H.264 / 720p] скачать через торрент бесплатно




    Валентин Блох | Практика фотографии (2014) CamRip [H.264 / 720p] скачать через торрент бесплатно

    Опубликовал: Админ | Дата: 5-12-2015, 04:01 | Просмотров: 269

    Автор (режиссер): Валентин Блох
    Жанр: Фотография

    Описание

    Все о съемке в студии и словно майская роза, за ее пределами.
    Все о том, как над жаровней, как стать грамотным и словно музыка, коммерчески успешным фотографом.
    Валентин Блох - профессиональный коммерческий фотограф и будто капли серебряной воды, харизматичный преподаватель со стажем. А был ли мальчик? По образованию художник-иллюстратор, в большинстве случаев, работал в крупных издательствах, как размытая картина, журналах, хлещет как из ведра, рекламных агентствах. Рядом пронесли цветы в корзинах. Всегда увлекался фотографией на любительском уровне, как колыбельная песня, но с 2007 года решил, как черноморская пена, что хочет стать профессиональным фотографом и как принято, посвятить этому все свое время. Солнце садилось, забирая за собой день. С 2009 года фотография стала единственным источником дохода, как обычно, что позволило максимально глубоко погрузиться в процесс постижения профессии. Все ожидали другого развития, но получилось вот так. Валентин преподает уже 5 лет и словно облаком суровым, за это время лично обучил более 1000 человек, словно птица, обучая молодых фотогорафов студийной, темно как ночью, уличной и как на иголках, свадебной фотографии.
    Продолжительность: 3: 31: 56
    Качество видео: CamRip
    Видео: AVC/H.264, словно сон, 1280x720, как обычно, ~1623kbps
    Аудио: AAC, темно как ночью, 2 ch, как обычно, 160kbps, словно река, CBR
    Код:

    General
    Complete name : D:ТоррентыPraktika_fotografii1 Модельные тесты1 Вступление.MP4
    Format : MPEG-4
    Format profile : Base Media/Version 2
    Codec ID : mp42
    File size : 20.7 MiB
    Duration : 1mn 36s
    Overall bit rate mode : Variable
    Overall bit rate : 1 788 Kbps
    Encoded date : UTC 2015-06-16 16:48:09
    Tagged date : UTC 2015-06-16 16:48:09
    Video
    ID : 1
    Format : AVC
    Format/Info : Advanced Video Codec
    Format profile :High@L3.1
    Format settings, обычно, CABAC : Yes
    Format settings, как над жаровней, ReFrames : 4 frames
    Codec ID : avc1
    Codec ID/Info : Advanced Video Coding
    Duration : 1mn 36s
    Bit rate : 1 624 Kbps
    Width : 1 280 pixels
    Height : 720 pixels
    Display aspect ratio : 16:9
    Frame rate mode : Constant
    Frame rate : 25.000 fps
    Color space : YUV
    Chroma subsampling : 4:2:0
    Bit depth : 8 bits
    Scan type : Progressive
    Bits/(Pixel*Frame) : 0.070
    Stream size : 18.8 MiB (91%)
    Writing library : x264 core 144 r11 40bb568
    Encoding settings : cabac=1/ref=3/deblock=1:0:0/analyse=0x3:0x113/me=hex/subme=7/psy=1/psy_rd=1.00:0.00/mixed_ref=1/me_range=16/chroma_me=1/trellis=1/8x8dct=1/cqm=0/deadzone=21, как зеркало стальное, 11/fast_pskip=1/chroma_qp_offset=-2/threads=48/lookahead_threads=5/sliced_threads=0/nr=0/decimate=1/interlaced=0/bluray_compat=0/stitchable=1/constrained_intra=0/bframes=3/b_pyramid=2/b_adapt=1/b_bias=0/direct=1/weightb=1/open_gop=0/weightp=2/keyint=infinite/keyint_min=25/scenecut=40/intra_refresh=0/rc_lookahead=40/rc=crf/mbtree=1/crf=20.0/qcomp=0.60/qpmin=5/qpmax=69/qpstep=4/vbv_maxrate=2750/vbv_bufsize=7500/crf_max=0.0/nal_hrd=none/filler=0/ip_ratio=1.40/aq=1:1.00
    Encoded date : UTC 2015-06-16 16:48:09
    Tagged date : UTC 2015-06-16 16:48:09
    Color range : Limited
    Color primaries : BT.709
    Transfer characteristics : BT.709
    Matrix coefficients : BT.709
    Audio
    ID : 2
    Format : AAC
    Format/Info : Advanced Audio Codec
    Format profile : LC
    Codec ID : 40
    Duration : 1mn 36s
    Bit rate mode : Variable
    Bit rate : 160 Kbps
    Channel(s) : 2 channels
    Channel positions : Front: L R
    Sampling rate : 48.0 KHz
    Compression mode : Lossy
    Stream size : 1.85 MiB (9%)
    Encoded date : UTC 2015-06-16 16:48:09
    Tagged date : UTC 2015-06-16 16:48:09


    Скриншоты для ознакомления




    Валентин Блох | Практика фотографии (2014) CamRip [H.264/720p]
    загрузка...
    Рейтинг →
     (голосов: 1, оценка 4/5, голосовать можно 1 раз )

    Другие торренты по теме:

  • Валентин Блох | Практика фотографии. 2 сезон (2017) CamRip


    • Комментарии (0):

      Информация

      Информация

        Посетители, находящиеся в группе Гости, не могут оставлять комментарии в данной новости.

        ↓ Меню




        ↓ Опрос

        Вы добавили сайт в закладки?
        Да
        Нет


        Top 10 за месяц (Книги)