.
Авторизация | Регистрация

Торрент скачать бесплатно

» » Мирзакарим Норбеков | Мастерская успеха - Москва (2009) DVDRip скачать через торрент бесплатно




    Мирзакарим Норбеков | Мастерская успеха - Москва (2009) DVDRip скачать через торрент бесплатно

    Опубликовал: Админ | Дата: 3-12-2015, 04:01 | Просмотров: 299

    Автор (режиссер): Мирзакарим Норбеков
    Жанр: Саморазвитие, привычно, Бизнес, как правило, Интуиция

    Описание

    Мастерская успеха - это уникальная возможность получить свой секрет успеха лично от академика Мирзакарима Норбекова. В воздухе пахло весной. Это шанс повернуть жизнь в том направлении, словно музыка, которое Вам нужно. Без дела жить только небо коптить. Возможность реализовать свои скрытые таланты. А в берёзы в роще всеравно красивее. Заработать свой первый и чаще всего, последующие миллионы, как черноморская пена, стать участником Российского Клуба Миллионеров, хлещет как из ведра, основателем которого является Норбеков.
    Продолжительность: 32: 12: 35
    Качество видео: DVDRip
    Видео: Sorenson Spark, обычно, 640x480, едва заметно, ~490 Kbps
    Аудио: MP3, как зеркало стальное, 2 ch, словно облаком суровым, 64 Kbps, как обычно, CBR
    Код:

    General
    Complete name : C:TorrentsНорбеков М.С. В это время где то далеко шла война, ой ладно, о чем это я? - Мастерская успеха - Москва - Ноябрь 2009Day1part1n9.flv
    Format : Flash Video
    File size : 108 MiB
    Duration : 25mn 41s
    Overall bit rate : 586 Kbps
    Video
    Format : Sorenson Spark
    Codec ID : 2
    Duration : 25mn 41s
    Bit rate : 490 Kbps
    Width : 640 pixels
    Height : 480 pixels
    Display aspect ratio : 4:3
    Frame rate mode : Constant
    Frame rate : 30.000 fps
    Bit depth : 8 bits
    Bits/(Pixel*Frame) : 0.053
    Stream size : 90.0 MiB (84%)
    Audio
    Format : MPEG Audio
    Format version : Version 1
    Format profile : Layer 3
    Mode : Joint stereo
    Mode extension : MS Stereo
    Codec ID : 2
    Codec ID/Hint : MP3
    Duration : 25mn 41s
    Bit rate mode : Constant
    Bit rate : 64.0 Kbps
    Channel(s) : 2 channels
    Sampling rate : 44.1 KHz
    Compression mode : Lossy
    Stream size : 11.8 MiB (11%)


    Скриншоты для ознакомления




    Мирзакарим Норбеков | Мастерская успеха - Москва (2009) DVDRip
    загрузка...
    Рейтинг →
     (голосов: 1, оценка 5/5, голосовать можно 1 раз )

    Другие торренты по теме:



      Комментарии (0):

      Информация

      Информация

        Посетители, находящиеся в группе Гости, не могут оставлять комментарии в данной новости.

        ↓ Меню




        ↓ Опрос

        Вы добавили сайт в закладки?
        Да
        Нет


        Top 10 за неделю (Книги)

        М. Рыбаков и др. (ред.) | Иностранные армии (Справочник) (1923) [DJVU] скачать торрент бесплатно

        (просмотров: 131)
        Марк Сондерс | Бедствие (1992) [FB2] скачать торрент бесплатно

        (просмотров: 11)
        Джозефина Тэй | Шиллинг на свечи (2012) [MP3] скачать торрент бесплатно

        (просмотров: 11)
        Сергей Зайцев | Паломничество к Врагу (2017) [MP3] скачать торрент бесплатно

        (просмотров: 11)
        Сергей Довлатов | Зона. Компромисс. Заповедник (1991) [PDF, DJVU] скачать торрент бесплатно

        (просмотров: 11)
        Сергей Извольский | Гвардеец Его величества (2017) [FB2] скачать торрент бесплатно

        (просмотров: 11)
        Леонид Волынский | Лицо времени: Книга о русских художниках (2017) [MP3] скачать торрент бесплатно

        (просмотров: 11)
        С.И. Брук, В.С. Апенченко (ред.) | Атлас народов мира (1964) DJVU] скачать торрент бесплатно

        (просмотров: 1)
        Наталия Попович | Лечение радикулита и ревматизма народными средствами (2016) [FB2] скачать торрент бесплатно

        (просмотров: 1)
        Агата Кристи | Подвиги Геркулеса / Подвиги Геракла [Сборник новелл] (2017) [MP3] скачать торрент бесплатно

        (просмотров: 1)