.
Авторизация | Регистрация
Хочешь лучшие торренты? Добавь свой email!
Добавить

Торрент скачать бесплатно

» » Мирзакарим Норбеков | Мастерская успеха - Москва (2009) DVDRip скачать через торрент бесплатно




    Мирзакарим Норбеков | Мастерская успеха - Москва (2009) DVDRip скачать через торрент бесплатно

    Опубликовал: Админ | Дата: 3-12-2015, 04:01 | Просмотров: 299

    Автор (режиссер): Мирзакарим Норбеков
    Жанр: Саморазвитие, привычно, Бизнес, как правило, Интуиция

    Описание

    Мастерская успеха - это уникальная возможность получить свой секрет успеха лично от академика Мирзакарима Норбекова. В воздухе пахло весной. Это шанс повернуть жизнь в том направлении, словно музыка, которое Вам нужно. Без дела жить только небо коптить. Возможность реализовать свои скрытые таланты. А в берёзы в роще всеравно красивее. Заработать свой первый и чаще всего, последующие миллионы, как черноморская пена, стать участником Российского Клуба Миллионеров, хлещет как из ведра, основателем которого является Норбеков.
    Продолжительность: 32: 12: 35
    Качество видео: DVDRip
    Видео: Sorenson Spark, обычно, 640x480, едва заметно, ~490 Kbps
    Аудио: MP3, как зеркало стальное, 2 ch, словно облаком суровым, 64 Kbps, как обычно, CBR
    Код:

    General
    Complete name : C:TorrentsНорбеков М.С. В это время где то далеко шла война, ой ладно, о чем это я? - Мастерская успеха - Москва - Ноябрь 2009Day1part1n9.flv
    Format : Flash Video
    File size : 108 MiB
    Duration : 25mn 41s
    Overall bit rate : 586 Kbps
    Video
    Format : Sorenson Spark
    Codec ID : 2
    Duration : 25mn 41s
    Bit rate : 490 Kbps
    Width : 640 pixels
    Height : 480 pixels
    Display aspect ratio : 4:3
    Frame rate mode : Constant
    Frame rate : 30.000 fps
    Bit depth : 8 bits
    Bits/(Pixel*Frame) : 0.053
    Stream size : 90.0 MiB (84%)
    Audio
    Format : MPEG Audio
    Format version : Version 1
    Format profile : Layer 3
    Mode : Joint stereo
    Mode extension : MS Stereo
    Codec ID : 2
    Codec ID/Hint : MP3
    Duration : 25mn 41s
    Bit rate mode : Constant
    Bit rate : 64.0 Kbps
    Channel(s) : 2 channels
    Sampling rate : 44.1 KHz
    Compression mode : Lossy
    Stream size : 11.8 MiB (11%)


    Скриншоты для ознакомления




    Мирзакарим Норбеков | Мастерская успеха - Москва (2009) DVDRip
    загрузка...
    Рейтинг →
     (голосов: 1, оценка 4/5, голосовать можно 1 раз )

    Другие торренты по теме:

  • Мирзакарим Норбеков | Опыт дурака 1-3 (2011-2015) [PDF]
  • Мирзакарим Норбеков | Интуиция и денежный поток (2014) PCRec [H.264] скачать через торрент бесплатно
  • Мирзакарим Норбеков | Как стать миллионером по системе М.С. Норбекова (2014) HDRip [H.264 / 720p] скачать через торрент бесплатно
  • Мирзакарим Норбеков, Андрей Лукашевич | Предназначение Человека. Программа Максимум (VIP) Мастер-классы (2015) DVDRip [H.264] скачать через торрент бесплатно
  • Мирзакарим Норбеков | Путь к Себе. Начало (2015) HDRip [H.264 / 720p] скачать через торрент бесплатно
  • Мирзакарим Норбеков | Суставная гимнастика (1999) CamRip [H.264] скачать через торрент бесплатно
  • Мирзакарим Норбеков | Мастерская успеха - Шри-Ланка (2010) [WMA] скачать через торрент бесплатно
  • Мирзакарим Норбеков | Мастерская успеха - Москва - Лето (2009) DVDRip скачать через торрент бесплатно


    • Комментарии (0):

      Информация

      Информация

        Посетители, находящиеся в группе Гости, не могут оставлять комментарии в данной новости.

        ↓ Меню




        ↓ Опрос

        Вы добавили сайт в закладки?
        Да
        Нет


        Top 10 за месяц (Книги)

        Дипак Чопра, Рудольф Танзи | Супергены. На что способна твоя ДНК (2017) [FB2]

        (скачиваний: 22)
        Ханне Брурсон | Мыслевирусы. Как не отравлять себе жизнь вредоносными мыслями (2015) [FB2]

        (скачиваний: 10)
        Элиэзер Штернберг | Нейрологика. Чем объясняются странные поступки, которые мы совершаем неожиданно для себя (2017) [RTF, FB2]

        (скачиваний: 9)
        Т. Барышникова (авт.-сост.) | Школа ремонта. Опыт лучших профессионалов для домашнего мастера (2015) [PDF]

        (скачиваний: 8)
        Юрий Гейко | Легкий способ бросить дурить. За рулем (2016) [FB2]

        (скачиваний: 7)
        Эндрю Стеллман, Дженнифер Грин | Постигая Agile (2017) [FB2]

        (скачиваний: 7)
        Д. Елисеев | Рассказы о математике с примерами на языках Python и C (2017) [PDF]

        (скачиваний: 7)
        Журнал | Вопросы кибербезопасности №1 (19) (2017) [PDF]

        (скачиваний: 6)
        Анастейша Янг | Ювелирные техники. Энциклопедия (2009) [PDF]

        (скачиваний: 5)
        Журнал | Популярная механика №6 (176) (июнь 2017) [PDF]

        (скачиваний: 5)