.
Авторизация | Регистрация
Хочешь лучшие торренты? Добавь свой email!
Добавить

Торрент скачать бесплатно

» » Михаил Гринберг | Свадебная съемка. Работа с искусственным светом (2015) CamRip [H.264 / 720p] скачать через торрент бесплатно




    Михаил Гринберг | Свадебная съемка. Работа с искусственным светом (2015) CamRip [H.264 / 720p] скачать через торрент бесплатно

    Опубликовал: Админ | Дата: 1-12-2015, 04:02 | Просмотров: 604

    Автор (режиссер): Михаил Гринберг
    Жанр: Видеокурс

    Описание

    В этом курсе автор покажет особенности работы с моделью на примере шести разных по характеру человек: четырех девушек и есть не что иное, двух парней.
    После просмотра курса вы научитесь виртуозно манипулировать светом в любых условиях, привычно, создавать объем на своих фотографиях, словно сон, регулировать контраст и темно как ночью, минимизировать постобработку в Photoshop еще на этапе съемки, как над жаровней, узнаете все о вспышках, будто капли серебряной воды, софтбоксах, словно музыка, синхронизаторах, обычно, тригерах и вертится как белка в колесе, ресиверах, как обычно, услышите секрета коммерчески успешного фотографа мирового класса.
    Продолжительность: 5: 42: 17
    Качество видео: CamRip
    Видео: AVC/H.264, как принято, 1280x720, как правило, ~1484kbps
    Аудио: AAC, хлещет как из ведра, 2 ch, как черноморская пена, 160kbps
    Код:

    General
    Complete name : D:ТоррентыSvadebnaya_s_emka1 ВСТУПЛЕНИЕВступление.mp4
    Format : MPEG-4
    Format profile : Base Media/Version 2
    Codec ID : mp42
    File size : 49.5 MiB
    Duration : 4mn 11s
    Overall bit rate mode : Variable
    Overall bit rate : 1 649 Kbps
    Encoded date : UTC 2015-09-17 09:15:29
    Tagged date : UTC 2015-09-17 09:15:29
    Video
    ID : 1
    Format : AVC
    Format/Info : Advanced Video Codec
    Format profile :High@L3.1
    Format settings, словно птица, CABAC : Yes
    Format settings, словно облаком суровым, ReFrames : 5 frames
    Codec ID : avc1
    Codec ID/Info : Advanced Video Coding
    Duration : 4mn 11s
    Bit rate : 1 485 Kbps
    Width : 1 280 pixels
    Height : 720 pixels
    Display aspect ratio : 16:9
    Frame rate mode : Constant
    Frame rate : 25.000 fps
    Color space : YUV
    Chroma subsampling : 4:2:0
    Bit depth : 8 bits
    Scan type : Progressive
    Bits/(Pixel*Frame) : 0.064
    Stream size : 44.5 MiB (90%)
    Writing library : x264 core 148 r11 73ae2d1
    Encoding settings : cabac=1/ref=5/deblock=1:0:0/analyse=0x3:0x113/me=umh/subme=8/psy=1/psy_rd=1.00:0.00/mixed_ref=1/me_range=16/chroma_me=1/trellis=1/8x8dct=1/cqm=0/deadzone=21, как колыбельная песня, 11/fast_pskip=1/chroma_qp_offset=-2/threads=22/lookahead_threads=3/sliced_threads=0/nr=0/decimate=1/interlaced=0/bluray_compat=0/stitchable=1/constrained_intra=0/bframes=3/b_pyramid=2/b_adapt=2/b_bias=0/direct=3/weightb=1/open_gop=0/weightp=2/keyint=infinite/keyint_min=25/scenecut=40/intra_refresh=0/rc_lookahead=50/rc=crf/mbtree=1/crf=20.0/qcomp=0.60/qpmin=5/qpmax=69/qpstep=4/vbv_maxrate=2750/vbv_bufsize=7500/crf_max=0.0/nal_hrd=none/filler=0/ip_ratio=1.40/aq=1:1.00
    Encoded date : UTC 2015-09-17 09:15:29
    Tagged date : UTC 2015-09-17 09:15:29
    Color range : Limited
    Color primaries : BT.709
    Transfer characteristics : BT.709
    Matrix coefficients : BT.709
    Audio
    ID : 2
    Format : AAC
    Format/Info : Advanced Audio Codec
    Format profile : LC
    Codec ID : 40
    Duration : 4mn 11s
    Bit rate mode : Variable
    Bit rate : 160 Kbps
    Channel(s) : 2 channels
    Channel positions : Front: L R
    Sampling rate : 48.0 KHz
    Compression mode : Lossy
    Stream size : 4.80 MiB (10%)
    Encoded date : UTC 2015-09-17 09:15:29
    Tagged date : UTC 2015-09-17 09:15:29


    Скриншоты для ознакомления




    Михаил Гринберг | Свадебная съемка. Работа с искусственным светом (2015) CamRip [H.264/720p]
    загрузка...
    Рейтинг →
     (голосов: 1, оценка 4/5, голосовать можно 1 раз )

    Другие торренты по теме:

  • Михаил Гринберг | Правильная позировка и работа с людьми на фотосессии (2015) PCRec [H.264 / 1080p]
  • Михаил Гринберг | Как с помощью вспышки сделать необыкновенные кадры (2015) PCRec [H.264 / 1080p]


    • Комментарии (0):

      Информация

      Информация

        Посетители, находящиеся в группе Гости, не могут оставлять комментарии в данной новости.

        ↓ Меню




        ↓ Опрос

        Вы добавили сайт в закладки?
        Да
        Нет


        Top 10 за месяц (Книги)

        Дипак Чопра, Рудольф Танзи | Супергены. На что способна твоя ДНК (2017) [FB2]

        (скачиваний: 24)
        Дэниэл Ласерда | 2100 асан. Вся йога в одной книге (2017) [PDF]

        (скачиваний: 21)
        Джулия Шоу | Ложная память. Почему нельзя доверять воспоминаниям (2017) [FB2]

        (скачиваний: 18)
        МААШ | Автошкола МААШ. Подготовка к теоретическому экзамену в ГИБДД Professional (2016) [MDF]

        (скачиваний: 16)
        Сунь-Цзы | Трактат о военном искусстве. С комментариями и объяснениями (2017) [FB2]

        (скачиваний: 15)
        Ханне Брурсон | Мыслевирусы. Как не отравлять себе жизнь вредоносными мыслями (2015) [FB2]

        (скачиваний: 15)
        Хезер Уиллемс, Нора Хертинг | Доведи идею до ума. 100 творческих упражнений для мозгового штурма, проработки и реализации проектов (2016) [PDF]

        (скачиваний: 14)
        Элиэзер Штернберг | Нейрологика. Чем объясняются странные поступки, которые мы совершаем неожиданно для себя (2017) [RTF, FB2]

        (скачиваний: 13)
        Голтис | Исцеляющий Импульс «Лёгкий старт» (2013) DVDRip скачать через торрент бесплатно

        (скачиваний: 13)
        Юлия Кириллова | Здоровые ноги и руки до старости (2017) [EPUB]

        (скачиваний: 13)