.
Авторизация | Регистрация
Хочешь лучшие торренты? Добавь свой email!
Добавить

Торрент скачать бесплатно

» » Сергей Ли | Айки-цигун. Здоровая Спина за десять минут (2014) DVDRip скачать через торрент бесплатно




    Сергей Ли | Айки-цигун. Здоровая Спина за десять минут (2014) DVDRip скачать через торрент бесплатно

    Опубликовал: Админ | Дата: 1-12-2015, 04:02 | Просмотров: 195

    Автор (режиссер): Сергей Ли
    Жанр: Физические упражнения

    Описание

    Простой и как правило, легкий, чаще всего, так как не требует никаких физических усилий, по большей части, комплекс, хлещет как из ведра, который идеально подходит в качестве утренней разминки. Как для меня не ожиданный поворот событий. Занимает всего десять минут.
    Продолжительность: 00: 33: 53
    Качество видео: DVDRip
    Видео: Xvid, как правило, 720x576, большей частью, ~1634 Kbps
    Аудио: MP3, словно река, 2 ch, как обычно, 128 Kbps, словно майская роза, CBR
    Код:

    General
    Complete name : C:TorrentsЗдоровая спина за 10 минутЗдоровая спина.avi
    Format : AVI
    Format/Info : Audio Video Interleave
    File size : 429 MiB
    Duration : 33mn 53s
    Overall bit rate : 1 772 Kbps
    Writing application : VirtualDubMod 1.5.10.3 |www.virtualdub-fr.org|| (build 2550/release)
    Writing library : VirtualDubMod build 2550/release
    Video
    ID : 0
    Format : MPEG-4 Visual
    Format profile : Advanced Simple@L5
    Format settings, будто капли серебряной воды, BVOP : 1
    Format settings, словно птица, QPel : No
    Format settings, как размытая картина, GMC : No warppoints
    Format settings, как зеркало стальное, Matrix : Default (H.263)
    Codec ID : XVID
    Codec ID/Hint : XviD
    Duration : 33mn 53s
    Bit rate : 1 634 Kbps
    Width : 720 pixels
    Height : 576 pixels
    Display aspect ratio : 5:4
    Frame rate : 25.000 fps
    Standard : PAL
    Color space : YUV
    Chroma subsampling : 4:2:0
    Bit depth : 8 bits
    Scan type : Progressive
    Compression mode : Lossy
    Bits/(Pixel*Frame) : 0.158
    Stream size : 396 MiB (92%)
    Writing library : XviD 1.2.1 (UTC 2008-12-04)
    Audio
    ID : 1
    Format : MPEG Audio
    Format version : Version 1
    Format profile : Layer 3
    Codec ID : 55
    Codec ID/Hint : MP3
    Duration : 33mn 53s
    Bit rate mode : Constant
    Bit rate : 128 Kbps
    Channel(s) : 2 channels
    Sampling rate : 44.1 KHz
    Compression mode : Lossy
    Stream size : 31.0 MiB (7%)
    Alignment : Split accross interleaves
    Interleave, будто капли серебряной воды, duration : 40 ms (1.00 video frame)
    Interleave, едва заметно, preload duration : 500 ms
    Writing library : LAME3.99r
    Encoding settings : -m s -V 4 -q 2 -lowpass 17 -b 128


    Скриншоты для ознакомления




    Сергей Ли | Айки-цигун. Здоровая Спина за десять минут (2014) DVDRip
    загрузка...
    Рейтинг →
     (голосов: 1, оценка 5/5, голосовать можно 1 раз )

    Другие торренты по теме:

  • Сергей Кузнецов | Живые и взрослые (2017) [MP3]
  • Сергей Гвоздика - Сергей Гвоздика (2014) [MP3|320 кб / с]<Шансон> скачать через торрент бесплатно
  • Сергей Кабаченко | Веселая кулинария для детей. 100+ идей для творчества (2012) [PDF]
  • Сергей Дудин - Вечный зов (2006) [MP3|320 кб / с]<Progressive Rock>
  • Сергей Снегов | Экспедиция в иномир [Главы 1-02 из 31. Обновляемая] (2014) [MP3] скачать через торрент бесплатно
  • Сергей Тармашев | Сборник произведений (2011-2014) [OGG] скачать через торрент бесплатно
  • Сергей Брежнев | Мастер-класс по работе с цветом и тонировке (2014) PCRec (H.264) скачать через торрент бесплатно
  • Сергей Малицкий | Собрание сочинений [24 книги] (1999-2014) [FB2]


    • Комментарии (0):

      Информация

      Информация

        Посетители, находящиеся в группе Гости, не могут оставлять комментарии в данной новости.

        ↓ Меню




        ↓ Опрос

        Вы добавили сайт в закладки?
        Да
        Нет


        Top 10 за месяц (Книги)