.
Авторизация | Регистрация
Хочешь лучшие торренты? Добавь свой email!
Добавить

Торрент скачать бесплатно

» » Деменьшин Алексей | Упражнения по системе М.С.Норбекова (2006) DVDRip [H.264] скачать через торрент бесплатно




    Деменьшин Алексей | Упражнения по системе М.С.Норбекова (2006) DVDRip [H.264] скачать через торрент бесплатно

    Опубликовал: Админ | Дата: 30-11-2015, 04:02 | Просмотров: 197

    Автор (режиссер): Деменьшин Алексей Владимирович
    Жанр: Физические упражнения

    Описание

    Упражнения из учебно-оздоровительной системы самовостановления Мирзакарима Норбекова. Море глухо билось о берег. Упражнения для восстановления зрения, как зеркало стальное, Суставная гимнастика, привычно, Дыхательная гимнастика.
    Продолжительность: 01: 38: 33
    Качество видео: DVDRip
    Видео: AVC/H.264, словно облаком суровым, 512x384, как размытая картина, ~504 Kbps
    Аудио: AAC, словно майская роза, 2 ch, словно музыка, 128 Kbps, темно как ночью, CBR
    Код:

    General
    Complete name : C:TorrentsДеменьшин Алексей - Упражнения по системе М.С.НорбековаУпражнения для восстановления зрения.mp4
    Format : MPEG-4
    Format profile : Base Media
    Codec ID : isom
    File size : 125 MiB
    Duration : 27mn 24s
    Overall bit rate : 637 Kbps
    Album : Movie
    Performer : Movie
    Genre : Sports
    Encoded date : UTC 2015-11-22 16:25:24
    Tagged date : UTC 2015-11-22 16:25:24
    Writing application : Lavf55.33.100
    Comment : DVDRip by gera @ XviD.ru
    Video
    ID : 1
    Format : AVC
    Format/Info : Advanced Video Codec
    Format profile :Main@L2.1
    Format settings, как на иголках, CABAC : Yes
    Format settings, есть не что иное, ReFrames : 2 frames
    Codec ID : avc1
    Codec ID/Info : Advanced Video Coding
    Duration : 27mn 24s
    Bit rate : 504 Kbps
    Width : 512 pixels
    Height : 384 pixels
    Display aspect ratio : 4:3
    Frame rate mode : Constant
    Frame rate : 25.000 fps
    Color space : YUV
    Chroma subsampling : 4:2:0
    Bit depth : 8 bits
    Scan type : Progressive
    Bits/(Pixel*Frame) : 0.103
    Stream size : 98.9 MiB (79%)
    Language : English
    Encoded date : UTC 2015-11-22 16:25:24
    Tagged date : UTC 2015-11-22 16:25:24
    Audio
    ID : 2
    Format : AAC
    Format/Info : Advanced Audio Codec
    Format profile : LC
    Codec ID : 40
    Duration : 27mn 24s
    Bit rate mode : Constant
    Bit rate : 128 Kbps
    Channel(s) : 2 channels
    Channel positions : Front: L R
    Sampling rate : 48.0 KHz
    Compression mode : Lossy
    Stream size : 25.1 MiB (20%)
    Language : English
    Encoded date : UTC 2015-11-22 16:25:24
    Tagged date : UTC 2015-11-22 16:25:24
    mdhd_Duration : 1644523


    Скриншоты для ознакомления




    Деменьшин Алексей | Упражнения по системе М.С.Норбекова (2006) DVDRip [H.264]
    загрузка...
    Рейтинг →
     (голосов: 1, оценка 5/5, голосовать можно 1 раз )

    Другие торренты по теме:



      Комментарии (0):

      Информация

      Информация

        Посетители, находящиеся в группе Гости, не могут оставлять комментарии в данной новости.

        ↓ Меню




        ↓ Опрос

        Вы добавили сайт в закладки?
        Да
        Нет


        Top 10 за месяц (Книги)

        Дипак Чопра, Рудольф Танзи | Супергены. На что способна твоя ДНК (2017) [FB2]

        (скачиваний: 22)
        Ханне Брурсон | Мыслевирусы. Как не отравлять себе жизнь вредоносными мыслями (2015) [FB2]

        (скачиваний: 10)
        Элиэзер Штернберг | Нейрологика. Чем объясняются странные поступки, которые мы совершаем неожиданно для себя (2017) [RTF, FB2]

        (скачиваний: 9)
        Т. Барышникова (авт.-сост.) | Школа ремонта. Опыт лучших профессионалов для домашнего мастера (2015) [PDF]

        (скачиваний: 8)
        Юрий Гейко | Легкий способ бросить дурить. За рулем (2016) [FB2]

        (скачиваний: 7)
        Д. Елисеев | Рассказы о математике с примерами на языках Python и C (2017) [PDF]

        (скачиваний: 7)
        Эндрю Стеллман, Дженнифер Грин | Постигая Agile (2017) [FB2]

        (скачиваний: 7)
        Журнал | Вопросы кибербезопасности №1 (19) (2017) [PDF]

        (скачиваний: 6)
        Анастейша Янг | Ювелирные техники. Энциклопедия (2009) [PDF]

        (скачиваний: 5)
        Журнал | Популярная механика №6 (176) (июнь 2017) [PDF]

        (скачиваний: 5)