.
Авторизация | Регистрация
Хочешь лучшие торренты? Добавь свой email!
Добавить

Торрент скачать бесплатно

» » Видео с Андреем Ткачёвым за 2015 год (2015) SATRip скачать через торрент бесплатно




    Видео с Андреем Ткачёвым за 2015 год (2015) SATRip скачать через торрент бесплатно

    Опубликовал: Админ | Дата: 29-11-2015, 04:04 | Просмотров: 144

    Жанр: Документальный
    Участники: Протоиерей Андрей Ткачёв

    Описание
    Протоиерей Андрей Ткачев — священник храма Воскресения Словущего на Успенском вражке г. Москва. Ведущий телепередач На сон грядущим, Сад божественных песен (КРТ). Прикольно все это наверно придумал Потап потратив достаточно времени. Женат; отец четверых детей. Член редколлегии и постоянный автор журнала Отрок.ua. В данной раздаче собраны все видеопроповеди, обращения, лекции и телепередачи с участием Андрея Ткачёва с егосайта за 2015 год.
    Продолжительность: 82: 29: 54
    Качество видео: SATRip
    Видео: AVC/H.264, Video: MPEG4 Video (H264) 480x360 25fps V: video (h264 high L2.1, yuv420p, 640x480, 769 kb/s), ~769kbps
    Аудио: AAC, 2 ch, Audio: AAC 44100Hz stereo 125kbps A: sound (aac lc, 44100 Hz, stereo, 125 kb/s)
    Скриншоты:

    Код:
    General
    Complete name :
    Format : MPEG-4
    Format profile : Base Media
    Codec ID : isom
    File size : 355 MiB
    Duration : 55mn 13s
    Overall bit rate mode : Variable
    Overall bit rate : 898 Kbps
    Encoded date : UTC 2015-02-23 17:02:37
    Tagged date : UTC 2015-02-23 17:02:37
    Writing application : FormatFactory :www.pcfreetime.com
    Video
    ID : 1
    Format : AVC
    Format/Info : Advanced Video Codec
    Format profile :High@L2.1
    Format settings, CABAC : No
    Format settings, ReFrames : 1 frame
    Codec ID : avc1
    Codec ID/Info : Advanced Video Coding
    Duration : 55mn 13s
    Bit rate : 768 Kbps
    Maximum bit rate : 1 736 Kbps
    Width : 640 pixels
    Height : 480 pixels
    Display aspect ratio : 4:3
    Frame rate mode : Constant
    Frame rate : 25.000 fps
    Color space : YUV
    Chroma subsampling : 4:2:0
    Bit depth : 8 bits
    Scan type : Progressive
    Bits/(Pixel*Frame) : 0.100
    Stream size : 304 MiB (86%)
    Writing library : x264 core 116 r2019 9cc407d
    Encoding settings : cabac=0/ref=1/deblock=1:0:0/analyse=0x3:0x113/me=hex/subme=7/psy=1/psy_rd=1.00:0.00/mixed_ref=0/me_range=16/chroma_me=1/trellis=1/8x8dct=1/cqm=0/deadzone=21, 11/fast_pskip=1/chroma_qp_offset=-2/threads=6/sliced_threads=0/nr=0/decimate=1/interlaced=0/bluray_compat=0/constrained_intra=0/bframes=0/weightp=2/keyint=250/keyint_min=25/scenecut=40/intra_refresh=0/rc_lookahead=40/rc=abr/mbtree=1/bitrate=768/ratetol=1.0/qcomp=0.60/qpmin=0/qpmax=69/qpstep=4/ip_ratio=1.40/aq=1:1.00
    Encoded date : UTC 2015-02-23 17:02:37
    Tagged date : UTC 2015-02-23 17:02:42
    Audio
    ID : 2
    Format : AAC
    Format/Info : Advanced Audio Codec
    Format profile : LC
    Codec ID : 40
    Duration : 55mn 13s
    Bit rate mode : Variable
    Bit rate : 126 Kbps
    Maximum bit rate : 163 Kbps
    Channel(s) : 2 channels
    Channel positions : Front: L R
    Sampling rate : 44.1 KHz
    Compression mode : Lossy
    Stream size : 49.6 MiB (14%)
    Encoded date : UTC 2015-02-23 17:02:41
    Tagged date : UTC 2015-02-23 17:02:42


    Скриншоты для ознакомления




    Видео с Андреем Ткачёвым за 2015 год (2015) SATRip
    загрузка...
    Рейтинг →
     (голосов: 1, оценка 4/5, голосовать можно 1 раз )

    Другие торренты по теме:

  • Валерий Богатов | Вирусное видео. Секреты и технологии (2016) [FB2, EPUB]
  • Видео в Gif (Gif из видео) 1.0 [Ru / Multi]
  • Lua Player Pro (HD POP-UP) v1.6.1 [Ru / Multi] - HD видео плеер для Android, позволяющий смотреть видео в отдельном окне
  • Домашнее видео / Sex Tape (2014) CamRip [Proper]
  • Артем Бахтин | Видео курс по оптовому бизнесу с нуля для новичков. (2014) [unpacked] скачать через торрент бесплатно
  • Домашнее видео / Sex Tape (2014) BDRip [720p] [EN] скачать через торрент бесплатно
  • Домашнее видео / Sex Tape (2014) BDRip [1080p] [EN] скачать через торрент бесплатно
  • Домашнее видео / Sex Tape (2014) HDRip [Звук с TS] скачать через торрент бесплатно


    • Комментарии (0):

      Информация

      Информация

        Посетители, находящиеся в группе Гости, не могут оставлять комментарии в данной новости.

        ↓ Меню




        ↓ Опрос

        Вы добавили сайт в закладки?
        Да
        Нет


        Top 10 за месяц (Книги)

        Джиллиан Майклз | Знаменитая программа Джиллиан Майклз: Стройное и здоровое тело за 30 дней (2016) [FB2]

        (скачиваний: 54)
        И.Б. Фефилова | Антивозрастная медицина. Современная энциклопедия (2015) [PDF, EPUB]

        (скачиваний: 31)
        Михаил Диденко | Русский стиль выживания. Как остаться в живых одному в лесу (2017) [PDF, FB2]

        (скачиваний: 27)
        Михаил Лабковский | Хочу и буду: Принять себя, полюбить жизнь и стать счастливым (2017) [FB2, EPUB]

        (скачиваний: 24)
        Александр Клинге | Ленин. Самая правдивая биография Ильича (2017) [FB2, EPUB]

        (скачиваний: 23)
        Джек Дэниелс | От 800 метров до марафона (2014) [FB2]

        (скачиваний: 22)
        Давид Дубницкий | Жанровый НЮ-портрет (2016) PCRec

        (скачиваний: 20)
        Джон Дуглас, Марк Олшейкер | Психологический портрет убийцы. Методики ФБР (2016) [FB2, EPUB]

        (скачиваний: 20)
        Евгений Старухин | Цикл «Лесовик» [4 книги. Обновляемая] (2015-2017) [FB2]

        (скачиваний: 20)
        Дэвид Агус | Завтра начинается сегодня. Как воспользоваться достижениями anti-age медицины (2017) [FB2, EPUB]

        (скачиваний: 20)