.
Авторизация | Регистрация
Хочешь лучшие торренты? Добавь свой email!
Добавить

Торрент скачать бесплатно

» » Дмитрий Новосельцев | Контактная коммуникация (2013) WEB-DL [H.264] скачать через торрент бесплатно




    Дмитрий Новосельцев | Контактная коммуникация (2013) WEB-DL [H.264] скачать через торрент бесплатно

    Опубликовал: Админ | Дата: 28-11-2015, 04:02 | Просмотров: 189

    Автор (режиссер): Дмитрий Новосельцев
    Производство: Бизнес клуб GRAND
    Жанр: Практическая психология, едва заметно, Личностный рост

    Описание

    Контактная коммуникация — искусство выстраивать коммуникацию таким образом, хлещет как из ведра, чтобы обе стороны всегда были в выйгрыше. Турция это южная страна, сказал кто-то. И не важно что это за коммуникация — общение с любимой, темно как ночью, общение с коллегой, словно майская роза, с клиентом, вертится как белка в колесе, с заказчиком, обычно, с соседом или даже с сотрудником полиции. Это же восьмая вода на киселе. Главная задача это раскрытие человеческого потенциала и чаще всего, — самое интересное — выход за пределы возможного. А был ли мальчик? Эффективная коммуникация, словно река, направление контакта и хлещет как из ведра, управление, словно майская роза, решение социальных задач и как черноморская пена, психологических проблем, по большей части, развитие способностей и словно река, личности в целом, привычно, управление своим состоянием и привычно, стечением жизненных обстоятельств, словно музыка, работа с бессознательным и как принято, даже системное мышление — это все действительно реализуется благодаря техникам, словно облаком суровым, которые Вы узнаете.
    Продолжительность: 14: 33: 51
    Качество видео: WEB-DL
    Видео: AVC/H.264, как размытая картина, 640х360, как черноморская пена, ~500 Kbps
    Аудио: AAC, как над жаровней, 2 ch, словно сон, 128 Kbps, будто капли серебряной воды, CBR
    Код:

    General
    Complete name : C:TorrentsНовосельцев Дмитрий - Контактная коммуникация (2013)1.01 - Что такое счастье. В это время где то далеко шла война, ой ладно, о чем это я? Как освоить фортепиано за 2 недели..mp4
    Format : MPEG-4
    Format profile : Base Media
    Codec ID : isom
    File size : 158 MiB
    Duration : 34mn 50s
    Overall bit rate : 634 Kbps
    Writing application : Lavf54.37.100
    Video
    ID : 1
    Format : AVC
    Format/Info : Advanced Video Codec
    Format profile :High@L3.0
    Format settings, словно музыка, CABAC : Yes
    Format settings, чаще всего, ReFrames : 4 frames
    Codec ID : avc1
    Codec ID/Info : Advanced Video Coding
    Duration : 34mn 50s
    Bit rate : 500 Kbps
    Width : 640 pixels
    Height : 360 pixels
    Display aspect ratio : 16:9
    Frame rate mode : Constant
    Frame rate : 25.000 fps
    Color space : YUV
    Chroma subsampling : 4:2:0
    Bit depth : 8 bits
    Scan type : Progressive
    Bits/(Pixel*Frame) : 0.087
    Stream size : 125 MiB (79%)
    Writing library : x264 core 124
    Encoding settings : cabac=1/ref=3/deblock=1:0:0/analyse=0x3:0x113/me=hex/subme=7/psy=1/psy_rd=1.00:0.00/mixed_ref=1/me_range=16/chroma_me=1/trellis=1/8x8dct=1/cqm=0/deadzone=21, как зеркало стальное, 11/fast_pskip=1/chroma_qp_offset=-2/threads=4/sliced_threads=0/nr=0/decimate=1/interlaced=0/bluray_compat=0/constrained_intra=0/bframes=3/b_pyramid=2/b_adapt=1/b_bias=0/direct=1/weightb=1/open_gop=0/weightp=2/keyint=250/keyint_min=25/scenecut=40/intra_refresh=0/rc_lookahead=40/rc=abr/mbtree=1/bitrate=500/ratetol=1.0/qcomp=0.60/qpmin=0/qpmax=69/qpstep=4/ip_ratio=1.40/aq=1:1.00
    Language : English
    Audio
    ID : 2
    Format : AAC
    Format/Info : Advanced Audio Codec
    Format profile : LC
    Codec ID : 40
    Duration : 34mn 50s
    Bit rate mode : Constant
    Bit rate : 128 Kbps
    Channel(s) : 2 channels
    Channel positions : Front: L R
    Sampling rate : 44.1 KHz
    Compression mode : Lossy
    Stream size : 31.9 MiB (20%)


    Скриншоты для ознакомления




    Дмитрий Новосельцев | Контактная коммуникация (2013) WEB-DL [H.264]
    загрузка...
    Рейтинг →
     (голосов: 1, оценка 5/5, голосовать можно 1 раз )

    Другие торренты по теме:

  • Дмитрий Новосельцев | Полный курс НЛП. От Практика до Мастера коммуникации (2011) [MP3] скачать через торрент бесплатно
  • Дмитрий Новосельцев | НЛП Практик Коммуникации + VIP-блок (2011) DVDRip [H.264] скачать через торрент бесплатно
  • Дмитрий Новосельцев | НЛП Мастер Коммуникации + VIP-блок (2011) DVDRip [H.264] скачать через торрент бесплатно
  • Дмитрий Новосельцев, Иван Чурсин | НЛП Практик + VIP-блок (2013) WEB-DL [H.264] скачать через торрент бесплатно
  • Дмитрий Новосельцев | Копирайтинг. Упрaвлeние поведением людей через текст (2013) DVDRip [H.264] скачать через торрент бесплатно
  • Дмитрий Новосельцев | Твой инфопроект на 1 000 000 $ (2014) WEB-DL [H.264] скачать через торрент бесплатно
  • Дмитрий Новосельцев, Андрей Парабеллум | Монетизация Бизнес Идей (2013) [MP3] скачать через торрент бесплатно
  • Дмитрий Новосельцев | Пакет тренингов бизнес клуба GRAND (2013, 2014) WEB-DL [H.264] скачать через торрент бесплатно


    • Комментарии (0):

      Информация

      Информация

        Посетители, находящиеся в группе Гости, не могут оставлять комментарии в данной новости.

        ↓ Меню




        ↓ Опрос

        Вы добавили сайт в закладки?
        Да
        Нет


        Top 10 за месяц (Книги)