.
Авторизация | Регистрация
Хочешь лучшие торренты? Добавь свой email!
Добавить

Торрент скачать бесплатно

» » Дмитрий Новосельцев | Копирайтинг. Упрaвлeние поведением людей через текст (2013) DVDRip [H.264] скачать через торрент бесплатно




    Дмитрий Новосельцев | Копирайтинг. Упрaвлeние поведением людей через текст (2013) DVDRip [H.264] скачать через торрент бесплатно

    Опубликовал: Админ | Дата: 22-11-2015, 04:26 | Просмотров: 149

    Автор (режиссер): Дмитрий Новосельцев
    Производство: Бизнес клуб GRAND
    Жанр: Копирайтинг, Продажи

    Описание

    Главные правила копирайтинга, позволяющие создавать такие коммерческие предложения и тексты, прочитав которые Ваш клиент будет покупать и действовать по заранее спланированному Вами сценарию. На курсе впервые рассказаны технологии управления поведением людей через текст для увеличения продаж.
    Как научиться создавать такие продающие тексты, чтобы эффективно влиять на поведение своих клиентов и руководить их дальнейшими действиями.
    Продолжительность: 05: 34: 29
    Качество видео: DVDRip
    Видео: AVC/H.264, 640х360, ~1200 Kbps
    Аудио: AAC, 2 ch, 110 Kbps, VBR
    Код:

    General
    Complete name : C:TorrentsНовосельцев Дмитрий - Копирайтинг. Управление поведением людей через текст (2013)Часть 01.mp4
    Format : MPEG-4
    Format profile : Base Media/Version 2
    Codec ID : mp42
    File size : 199 MiB
    Duration : 27mn 2s
    Overall bit rate mode : Variable
    Overall bit rate : 1 031 Kbps
    Encoded date : UTC 2013-12-12 20:35:58
    Tagged date : UTC 2013-12-12 20:36:42
    ©TIM : 0
    ©TSC : 15
    ©TSZ : 1
    Video
    ID : 1
    Format : AVC
    Format/Info : Advanced Video Codec
    Format profile :Main@L3.1
    Format settings, CABAC : Yes
    Format settings, ReFrames : 3 frames
    Format settings, GOP : M=4, N=15
    Codec ID : avc1
    Codec ID/Info : Advanced Video Coding
    Duration : 27mn 2s
    Bit rate mode : Variable
    Bit rate : 917 Kbps
    Maximum bit rate : 1 200 Kbps
    Width : 640 pixels
    Height : 360 pixels
    Display aspect ratio : 16:9
    Frame rate mode : Variable
    Frame rate : 15.000 fps
    Minimum frame rate : 15.000 fps
    Maximum frame rate : 15.008 fps
    Standard : NTSC
    Color space : YUV
    Chroma subsampling : 4:2:0
    Bit depth : 8 bits
    Scan type : Progressive
    Bits/(Pixel*Frame) : 0.265
    Stream size : 177 MiB (89%)
    Language : English
    Encoded date : UTC 2013-12-12 20:35:58
    Tagged date : UTC 2013-12-12 20:36:42
    mdhd_Duration : 1622065
    Audio
    ID : 2
    Format : AAC
    Format/Info : Advanced Audio Codec
    Format profile : LC
    Codec ID : 40
    Duration : 27mn 2s
    Bit rate mode : Variable
    Bit rate : 110 Kbps
    Channel(s) : 2 channels
    Channel positions : Front: L R
    Sampling rate : 44.1 KHz
    Compression mode : Lossy
    Stream size : 21.2 MiB (11%)
    Language : English
    Encoded date : UTC 2013-12-12 20:35:58
    Tagged date : UTC 2013-12-12 20:36:42
    mdhd_Duration : 1622087


    Скриншоты для ознакомления




    Дмитрий Новосельцев | Копирайтинг. Упрaвлeние поведением людей через текст (2013) DVDRip [H.264]
    загрузка...
    Рейтинг →
     (голосов: 1, оценка 3/5, голосовать можно 1 раз )

    Другие торренты по теме:

  • Дмитрий Новосельцев | Полный курс НЛП. От Практика до Мастера коммуникации (2011) [MP3] скачать через торрент бесплатно
  • Дмитрий Новосельцев | НЛП Практик Коммуникации + VIP-блок (2011) DVDRip [H.264] скачать через торрент бесплатно
  • Дмитрий Новосельцев | НЛП Мастер Коммуникации + VIP-блок (2011) DVDRip [H.264] скачать через торрент бесплатно
  • Дмитрий Новосельцев, Иван Чурсин | НЛП Практик + VIP-блок (2013) WEB-DL [H.264] скачать через торрент бесплатно
  • Дмитрий Новосельцев | Твой инфопроект на 1 000 000 $ (2014) WEB-DL [H.264] скачать через торрент бесплатно
  • Дмитрий Новосельцев, Андрей Парабеллум | Монетизация Бизнес Идей (2013) [MP3] скачать через торрент бесплатно
  • Дмитрий Новосельцев | Контактная коммуникация (2013) WEB-DL [H.264] скачать через торрент бесплатно
  • Дмитрий Новосельцев | Пакет тренингов бизнес клуба GRAND (2013, 2014) WEB-DL [H.264] скачать через торрент бесплатно


    • Комментарии (0):

      Информация

      Информация

        Посетители, находящиеся в группе Гости, не могут оставлять комментарии в данной новости.

        ↓ Меню




        ↓ Опрос

        Вы добавили сайт в закладки?
        Да
        Нет


        Top 10 за месяц (Книги)

        Джиллиан Майклз | Знаменитая программа Джиллиан Майклз: Стройное и здоровое тело за 30 дней (2016) [FB2]

        (скачиваний: 54)
        И.Б. Фефилова | Антивозрастная медицина. Современная энциклопедия (2015) [PDF, EPUB]

        (скачиваний: 31)
        Михаил Диденко | Русский стиль выживания. Как остаться в живых одному в лесу (2017) [PDF, FB2]

        (скачиваний: 27)
        Михаил Лабковский | Хочу и буду: Принять себя, полюбить жизнь и стать счастливым (2017) [FB2, EPUB]

        (скачиваний: 24)
        Александр Клинге | Ленин. Самая правдивая биография Ильича (2017) [FB2, EPUB]

        (скачиваний: 23)
        Джек Дэниелс | От 800 метров до марафона (2014) [FB2]

        (скачиваний: 22)
        Дэвид Агус | Завтра начинается сегодня. Как воспользоваться достижениями anti-age медицины (2017) [FB2, EPUB]

        (скачиваний: 20)
        Джон Дуглас, Марк Олшейкер | Психологический портрет убийцы. Методики ФБР (2016) [FB2, EPUB]

        (скачиваний: 20)
        Давид Дубницкий | Жанровый НЮ-портрет (2016) PCRec

        (скачиваний: 20)
        Евгений Старухин | Цикл «Лесовик» [4 книги. Обновляемая] (2015-2017) [FB2]

        (скачиваний: 20)