.
Авторизация | Регистрация
Хочешь лучшие торренты? Добавь свой email!
Добавить

Торрент скачать бесплатно

» » Новосельцев Дмитрий | GrandStartUp / Гранд Старт Ап (2014) WEB-DL [H.264] скачать через торрент бесплатно




    Новосельцев Дмитрий | GrandStartUp / Гранд Старт Ап (2014) WEB-DL [H.264] скачать через торрент бесплатно

    Опубликовал: Админ | Дата: 21-11-2015, 04:23 | Просмотров: 219

    Автор (режиссер): Новосельцев Дмитрий
    Производство: Бизнес клуб GRAND
    Жанр: Бизнес

    Описание

    Индивидуальный пошаговый онлайн-коучинг содержит все необходимые материалы для гарантированного создания собственного бизнеса за 3 месяца. Хватит уже заниматься никому не нужным делом. Все, как на иголках, что Вам останется – это пойти и едва заметно, сделать то, словно сон, что уже сделали десятки людей до Вас. Самое интересное в это истории, что об этом Супермен ничего не знал. В результате – вы создадите свой бизнес-проект с нуля, хлещет как из ведра, если никогда не делали этого, как колыбельная песня, или сможете выйти в еще одну прибыльную нишу, словно облаком суровым, если уже имеете опыт своего дела
    Продолжительность: 17: 59: 41
    Качество видео: WEB-DL
    Видео: AVC/H.264, как черноморская пена, 640х480, как обычно, ~23.2 Kbps
    Аудио: AAC, привычно, 2 ch, по большей части, 53.6 Kbps, будто капли серебряной воды, CBR
    Код:

    General
    Complete name : C:TorrentsНовосельцев Дмитрий - GrandStartUp - Гранд Старт Ап (2014)Уроки1. Это может быть лучший фундамент для сотрудничества. Вводное занятие.mp4
    Format : MPEG-4
    Format profile : Base Media/Version 2
    Codec ID : mp42
    File size : 15.8 MiB
    Duration : 28mn 5s
    Overall bit rate : 78.8 Kbps
    Encoded date : UTC 2011-11-29 20:43:51
    Tagged date : UTC 2011-11-29 20:43:51
    Video
    ID : 1
    Format : AVC
    Format/Info : Advanced Video Codec
    Format profile :High@L2.2
    Format settings, темно как ночью, CABAC : Yes
    Format settings, как принято, ReFrames : 4 frames
    Format settings, как зеркало стальное, GOP : M=1, словно сон, N=75
    Codec ID : avc1
    Codec ID/Info : Advanced Video Coding
    Duration : 28mn 5s
    Source duration : 28mn 5s
    Bit rate : 23.2 Kbps
    Width : 640 pixels
    Height : 480 pixels
    Display aspect ratio : 4:3
    Frame rate mode : Constant
    Frame rate : 15.000 fps
    Standard : NTSC
    Color space : YUV
    Chroma subsampling : 4:2:0
    Bit depth : 8 bits
    Scan type : Progressive
    Bits/(Pixel*Frame) : 0.005
    Stream size : 4.66 MiB (29%)
    Source stream size : 4.66 MiB (29%)
    Language : English
    Encoded date : UTC 2011-11-29 20:43:51
    Tagged date : UTC 2011-11-29 20:43:51
    Color primaries : BT.601 NTSC
    Transfer characteristics : BT.601
    Matrix coefficients : BT.601
    mdhd_Duration : 1685431
    Audio
    ID : 2
    Format : AAC
    Format/Info : Advanced Audio Codec
    Format profile : LC
    Codec ID : 40
    Duration : 28mn 5s
    Source duration : 28mn 5s
    Bit rate mode : Constant
    Bit rate : 53.6 Kbps
    Channel(s) : 2 channels
    Channel positions : Front: L R
    Sampling rate : 44.1 KHz
    Compression mode : Lossy
    Stream size : 10.8 MiB (68%)
    Source stream size : 10.8 MiB (68%)
    Language : English
    Encoded date : UTC 2011-11-29 20:43:51
    Tagged date : UTC 2011-11-29 20:43:51
    mdhd_Duration : 1684410


    Скриншоты для ознакомления




    Новосельцев Дмитрий | GrandStartUp/Гранд Старт Ап (2014) WEB-DL [H.264]
    загрузка...
    Рейтинг →
     (голосов: 1, оценка 4/5, голосовать можно 1 раз )

    Другие торренты по теме:

  • Дмитрий Новосельцев | Полный курс НЛП. От Практика до Мастера коммуникации (2011) [MP3] скачать через торрент бесплатно
  • Дмитрий Новосельцев | НЛП Практик Коммуникации + VIP-блок (2011) DVDRip [H.264] скачать через торрент бесплатно
  • Дмитрий Новосельцев | НЛП Мастер Коммуникации + VIP-блок (2011) DVDRip [H.264] скачать через торрент бесплатно
  • Дмитрий Новосельцев, Иван Чурсин | НЛП Практик + VIP-блок (2013) WEB-DL [H.264] скачать через торрент бесплатно
  • Дмитрий Новосельцев | Копирайтинг. Упрaвлeние поведением людей через текст (2013) DVDRip [H.264] скачать через торрент бесплатно
  • Дмитрий Новосельцев | Твой инфопроект на 1 000 000 $ (2014) WEB-DL [H.264] скачать через торрент бесплатно
  • Дмитрий Новосельцев, Андрей Парабеллум | Монетизация Бизнес Идей (2013) [MP3] скачать через торрент бесплатно
  • Дмитрий Новосельцев | Контактная коммуникация (2013) WEB-DL [H.264] скачать через торрент бесплатно


    • Комментарии (0):

      Информация

      Информация

        Посетители, находящиеся в группе Гости, не могут оставлять комментарии в данной новости.

        ↓ Меню




        ↓ Опрос

        Вы добавили сайт в закладки?
        Да
        Нет


        Top 10 за месяц (Книги)

        Дипак Чопра, Рудольф Танзи | Супергены. На что способна твоя ДНК (2017) [FB2]

        (скачиваний: 24)
        Дэниэл Ласерда | 2100 асан. Вся йога в одной книге (2017) [PDF]

        (скачиваний: 21)
        Джулия Шоу | Ложная память. Почему нельзя доверять воспоминаниям (2017) [FB2]

        (скачиваний: 18)
        МААШ | Автошкола МААШ. Подготовка к теоретическому экзамену в ГИБДД Professional (2016) [MDF]

        (скачиваний: 16)
        Сунь-Цзы | Трактат о военном искусстве. С комментариями и объяснениями (2017) [FB2]

        (скачиваний: 15)
        Ханне Брурсон | Мыслевирусы. Как не отравлять себе жизнь вредоносными мыслями (2015) [FB2]

        (скачиваний: 15)
        Хезер Уиллемс, Нора Хертинг | Доведи идею до ума. 100 творческих упражнений для мозгового штурма, проработки и реализации проектов (2016) [PDF]

        (скачиваний: 14)
        Голтис | Исцеляющий Импульс «Лёгкий старт» (2013) DVDRip скачать через торрент бесплатно

        (скачиваний: 13)
        Элиэзер Штернберг | Нейрологика. Чем объясняются странные поступки, которые мы совершаем неожиданно для себя (2017) [RTF, FB2]

        (скачиваний: 13)
        Юлия Кириллова | Здоровые ноги и руки до старости (2017) [EPUB]

        (скачиваний: 13)