.
Авторизация | Регистрация

Торрент скачать бесплатно

» » Дмитрий Новосельцев, Иван Чурсин | НЛП Практик + VIP-блок (2013) WEB-DL [H.264] скачать через торрент бесплатно




    Дмитрий Новосельцев, Иван Чурсин | НЛП Практик + VIP-блок (2013) WEB-DL [H.264] скачать через торрент бесплатно

    Опубликовал: Админ | Дата: 18-11-2015, 04:02 | Просмотров: 254

    Автор (режиссер): Новосельцев Дмитрий, словно река, Чурсин Иван
    Жанр: Практическая психология, по большей части, Личностный рост

    Описание

    Единственный курс сертификационного курса НЛП-Практик в котором содержится информация и большей частью, версии техник, как правило, которые вы не найдете нигде, темно как ночью, кроме данного курса, как черноморская пена, ведущими которого будут Иван Чурсин и вертится как белка в колесе, Дмитрий Новосельцев. Да м, ангельское терпение. Эти материалы являются авторскими разработками, словно музыка, а некоторые из них входят в дополнительную программу курса НЛП-Практик лучших центров мира.
    Продолжительность: 69: 14: 30
    Качество видео: WEB-DL
    Видео: AVC/H.264, обычно, 640x360, привычно, ~500 Kbps
    Аудио: AAC, словно сон, 2 ch, словно майская роза, 128 Kbps, словно музыка, CBR
    Код:

    General
    Complete name : С:TorrentsНовосельцев Дмитрий, вертится как белка в колесе, Чурсин Иван - НЛП Практик + VIP-блок (2013)2 - НЛП-Практик1 - Введение в курс - ч01.mp4
    Format : MPEG-4
    Format profile : Base Media
    Codec ID : isom
    File size : 85.8 MiB
    Duration : 19mn 0s
    Overall bit rate : 631 Kbps
    Writing application : Lavf54.37.100
    Video
    ID : 1
    Format : AVC
    Format/Info : Advanced Video Codec
    Format profile :High@L2.2
    Format settings, есть не что иное, CABAC : Yes
    Format settings, как правило, ReFrames : 4 frames
    Codec ID : avc1
    Codec ID/Info : Advanced Video Coding
    Duration : 19mn 0s
    Bit rate : 500 Kbps
    Width : 640 pixels
    Height : 360 pixels
    Display aspect ratio : 16:9
    Frame rate mode : Constant
    Frame rate : 15.000 fps
    Color space : YUV
    Chroma subsampling : 4:2:0
    Bit depth : 8 bits
    Scan type : Progressive
    Bits/(Pixel*Frame) : 0.145
    Stream size : 67.9 MiB (79%)
    Writing library : x264 core 124
    Encoding settings : cabac=1/ref=3/deblock=1:0:0/analyse=0x3:0x113/me=hex/subme=7/psy=1/psy_rd=1.00:0.00/mixed_ref=1/me_range=16/chroma_me=1/trellis=1/8x8dct=1/cqm=0/deadzone=21, как обычно, 11/fast_pskip=1/chroma_qp_offset=-2/threads=4/sliced_threads=0/nr=0/decimate=1/interlaced=0/bluray_compat=0/constrained_intra=0/bframes=3/b_pyramid=2/b_adapt=1/b_bias=0/direct=1/weightb=1/open_gop=0/weightp=2/keyint=250/keyint_min=15/scenecut=40/intra_refresh=0/rc_lookahead=40/rc=abr/mbtree=1/bitrate=500/ratetol=1.0/qcomp=0.60/qpmin=0/qpmax=69/qpstep=4/ip_ratio=1.40/aq=1:1.00
    Language : English
    Audio
    ID : 2
    Format : AAC
    Format/Info : Advanced Audio Codec
    Format profile : LC
    Codec ID : 40
    Duration : 19mn 0s
    Bit rate mode : Constant
    Bit rate : 128 Kbps
    Channel(s) : 2 channels
    Channel positions : Front: L R
    Sampling rate : 44.1 KHz
    Compression mode : Lossy
    Stream size : 17.4 MiB (20%)


    Скриншоты для ознакомления




    Дмитрий Новосельцев, Иван Чурсин | НЛП Практик + VIP-блок (2013) WEB-DL [H.264]
    загрузка...
    Рейтинг →
     (голосов: 1, оценка 3/5, голосовать можно 1 раз )

    Другие торренты по теме:

  • Дмитрий Новосельцев | Полный курс НЛП. От Практика до Мастера коммуникации (2011) [MP3] скачать через торрент бесплатно
  • Дмитрий Новосельцев | НЛП Практик Коммуникации + VIP-блок (2011) DVDRip [H.264] скачать через торрент бесплатно
  • Дмитрий Новосельцев | НЛП Мастер Коммуникации + VIP-блок (2011) DVDRip [H.264] скачать через торрент бесплатно
  • Дмитрий Новосельцев | Копирайтинг. Упрaвлeние поведением людей через текст (2013) DVDRip [H.264] скачать через торрент бесплатно
  • Дмитрий Новосельцев | Твой инфопроект на 1 000 000 $ (2014) WEB-DL [H.264] скачать через торрент бесплатно
  • Дмитрий Новосельцев, Андрей Парабеллум | Монетизация Бизнес Идей (2013) [MP3] скачать через торрент бесплатно
  • Дмитрий Новосельцев | Контактная коммуникация (2013) WEB-DL [H.264] скачать через торрент бесплатно
  • Дмитрий Новосельцев | Пакет тренингов бизнес клуба GRAND (2013, 2014) WEB-DL [H.264] скачать через торрент бесплатно


    • Комментарии (0):

      Информация

      Информация

        Посетители, находящиеся в группе Гости, не могут оставлять комментарии в данной новости.

        ↓ Меню




        ↓ Опрос

        Вы добавили сайт в закладки?
        Да
        Нет


        Top 10 за неделю (Книги)

        В.И. Ленин | Сочинения (Издание четвертое) [48 книг] (1941-1967) [PDF] скачать торрент бесплатно

        (просмотров: 241)
        М.С. Серов | Глобальное потепление (2010) [PDF] скачать торрент бесплатно

        (просмотров: 141)
        Дмитрий Федотов | Основы 3ds Max (2013) PCRec [H.264] скачать торрент бесплатно

        (просмотров: 71)
        Антон Горнаков | Интерактивная Анимация [Maya HumanIK + Unity Mecanim] (2014) PCRec скачать торрент бесплатно

        (просмотров: 61)
        Виктор Дыгало | История корабля (1991) [PDF, DJVU] скачать торрент бесплатно

        (просмотров: 21)
        Марина Ильинская | Без очков. Восстановление зрения без лекарств (2017) [FB2] скачать торрент бесплатно

        (просмотров: 21)
        Дуглас Кенрик | Инстинкты и смысл жизни. Почему в нас так много животного (2017) [FB2] скачать торрент бесплатно

        (просмотров: 11)
        Валентина Травинка | Рецепты бабушки Травинки (2011) [MP3] скачать торрент бесплатно

        (просмотров: 11)
        Александр Сергеевич Пушкин | Брак холостит душу [сборник] (2017) [FB2] скачать торрент бесплатно

        (просмотров: 11)
        Журнал | Профиль №6 (987) (февраль 2017) [PDF] скачать торрент бесплатно

        (просмотров: 11)