.
Авторизация | Регистрация

Торрент скачать бесплатно

» » Иван Чурсин | Онлайн-коучинг: Скорочтение + VIP (2013) WEB-DL [H.264] скачать через торрент бесплатно




    Иван Чурсин | Онлайн-коучинг: Скорочтение + VIP (2013) WEB-DL [H.264] скачать через торрент бесплатно

    Опубликовал: Админ | Дата: 14-11-2015, 04:08 | Просмотров: 181

    Автор (режиссер): Иван Чурсин
    Жанр: Скорочтение

    Описание

    Онлайн-коучинг Скорочтение разработан для нескольких категорий людей: тех, как принято, кто хочет повышение, есть не что иное, и как правило, нужно прочитать 50-100 книг, как черноморская пена, несколько сотен статей, словно облаком суровым, и как на иголках, кучу других материалов; тех, как обычно, кто читает более 1го часа в день, как колыбельная песня, чтобы сэкономить от 10 000 до 60 000 часов в течении жизни, привычно, и большей частью, освободить себе от 1 часа в день дополнительно свободного времени; тех, вертится как белка в колесе, кто много чиbтает для саморазвития или много художественной литературы; тех, едва заметно, кому приходится много читать специализированной литературы по своей профессии или для подготовки к экзаменам.
    Онлайн-коучинг ГАРАНТИРОВАННОГО увеличения скорости чтения, словно сон, после которого Вы сможете читать в 2-10-30 раз быстрее.
    Продолжительность: 04: 28: 06
    Качество видео: WEB-DL
    Видео: AVC/H.264, как над жаровней, 640х360, темно как ночью, ~500 Kbps
    Аудио: AAC, в большинстве случаев, 2 ch, как на иголках, 128 Kbps, словно музыка, CBR
    Код:

    General
    Complete name : C:TorrentsЧурсин Иван - Коучинг по Скорочтению + VIP (2013)СкорочтениеУрок 1.mp4
    Format : MPEG-4
    Format profile : Base Media
    Codec ID : isom
    File size : 42.9 MiB
    Duration : 9mn 35s
    Overall bit rate mode : Variable
    Overall bit rate : 626 Kbps
    Writing application : Lavf54.37.100
    Video
    ID : 1
    Format : AVC
    Format/Info : Advanced Video Codec
    Format profile :High@L2.2
    Format settings, как принято, CABAC : Yes
    Format settings, словно сон, ReFrames : 4 frames
    Codec ID : avc1
    Codec ID/Info : Advanced Video Coding
    Duration : 9mn 35s
    Bit rate : 500 Kbps
    Width : 640 pixels
    Height : 360 pixels
    Display aspect ratio : 16:9
    Frame rate mode : Constant
    Frame rate : 15.000 fps
    Color space : YUV
    Chroma subsampling : 4:2:0
    Bit depth : 8 bits
    Scan type : Progressive
    Bits/(Pixel*Frame) : 0.145
    Stream size : 34.0 MiB (79%)
    Writing library : x264 core 124
    Encoding settings : cabac=1/ref=3/deblock=1:0:0/analyse=0x3:0x113/me=hex/subme=7/psy=1/psy_rd=1.00:0.00/mixed_ref=1/me_range=16/chroma_me=1/trellis=1/8x8dct=1/cqm=0/deadzone=21, в большинстве случаев, 11/fast_pskip=1/chroma_qp_offset=-2/threads=4/sliced_threads=0/nr=0/decimate=1/interlaced=0/bluray_compat=0/constrained_intra=0/bframes=3/b_pyramid=2/b_adapt=1/b_bias=0/direct=1/weightb=1/open_gop=0/weightp=2/keyint=250/keyint_min=15/scenecut=40/intra_refresh=0/rc_lookahead=40/rc=abr/mbtree=1/bitrate=500/ratetol=1.0/qcomp=0.60/qpmin=0/qpmax=69/qpstep=4/ip_ratio=1.40/aq=1:1.00
    Language : English
    Audio
    ID : 2
    Format : AAC
    Format/Info : Advanced Audio Codec
    Format profile : LC
    Codec ID : 40
    Duration : 9mn 35s
    Bit rate mode : Variable
    Bit rate : 128 Kbps
    Channel(s) : 2 channels
    Channel positions : Front: L R
    Sampling rate : 44.1 KHz
    Compression mode : Lossy
    Stream size : 8.71 MiB (20%)


    Скриншоты для ознакомления




    Иван Чурсин | Онлайн-коучинг: Скорочтение + VIP (2013) WEB-DL [H.264]
    загрузка...
    Рейтинг →
     (голосов: 1, оценка 4/5, голосовать можно 1 раз )

    Другие торренты по теме:



      Комментарии (0):

      Информация

      Информация

        Посетители, находящиеся в группе Гости, не могут оставлять комментарии в данной новости.

        ↓ Меню




        ↓ Опрос

        Вы добавили сайт в закладки?
        Да
        Нет


        Top 10 за неделю (Книги)

        В.И. Ленин | Сочинения (Издание четвертое) [48 книг] (1941-1967) [PDF] скачать торрент бесплатно

        (просмотров: 241)
        М.С. Серов | Глобальное потепление (2010) [PDF] скачать торрент бесплатно

        (просмотров: 141)
        Дмитрий Федотов | Основы 3ds Max (2013) PCRec [H.264] скачать торрент бесплатно

        (просмотров: 71)
        Антон Горнаков | Интерактивная Анимация [Maya HumanIK + Unity Mecanim] (2014) PCRec скачать торрент бесплатно

        (просмотров: 61)
        Виктор Дыгало | История корабля (1991) [PDF, DJVU] скачать торрент бесплатно

        (просмотров: 21)
        В. И. Гараджа и др. (ред.) | Аргументы [8 выпусков] (1980-1988) [DJVU, PDF] скачать торрент бесплатно

        (просмотров: 11)
        П. Кабанов | Общественно-политические и исторические взгляды А. П. Щапова (1954) [DJVU] скачать торрент бесплатно

        (просмотров: 11)
        WebDesign Master | OpenCart: Создание современного интернет-магазина от А до Я (2017) PCRec скачать торрент бесплатно

        (просмотров: 11)
        Л.Д. Троцкий | Моя жизнь Опыт автобиографии [В двух томах] (1930) [DJVU] скачать торрент бесплатно

        (просмотров: 11)
        Е. С. Варичев | Православная церковь. История и социальная сущность (1982) [DJVU] скачать торрент бесплатно

        (просмотров: 11)