.
Авторизация | Регистрация
Хочешь лучшие торренты? Добавь свой email!
Добавить

Торрент скачать бесплатно

» » Иван Чурсин | Онлайн-коучинг: Суперпамять (2013) WEB-DL [H.264] скачать через торрент бесплатно




    Иван Чурсин | Онлайн-коучинг: Суперпамять (2013) WEB-DL [H.264] скачать через торрент бесплатно

    Опубликовал: Админ | Дата: 14-11-2015, 04:08 | Просмотров: 202

    Автор (режиссер): Иван Чурсин
    Жанр: Обучение, Мнемотехники

    Описание

    Онлайн-коучинг Суперпамять разработан для всех категорий людей, так как в любой сфере нашей жизни мы постоянно сталкиваемся с потоком новой информации. Он подходит для тех, кто: постоянно забывает все на следующий день после экзаменов, но хочет помнить все; хочет получить высшее образование всего за год и для этого научиться писать конспекты методом mind map и переработать много литературы и запомнить все, что необходимо; постоянно забывает дни рождения своих друзей и близких; хочет раз и навсегда запомнить свой номер телефона, либо номер своей девушки; занимается саморазвитием и осваивает новые эффективные методики; хочет получить повышение на работе и ему необходимо изучить множество дополнительных сведений по своей специальности; хочет открыть свой бизнес и нужно переработать сотни книг по бизнесу, для того чтобы эффективно привлекать клиентов.
    Онлайн-коучинг ГАРАНТИРОВАННОГО развития памяти, после которого Вы сможете запоминать всё, что угодночитать с первого раза на неограниченно долгий срок.
    Продолжительность: 02: 37: 39
    Качество видео: WEB-DL
    Видео: AVC/H.264, 640х360, ~500 Kbps
    Аудио: AAC, 2 ch, 128 Kbps, CBR
    Код:

    General
    Complete name : C:TorrentsЧурсин Иван - Коучинг по Суперпамяти (2013)1 урок.mp4
    Format : MPEG-4
    Format profile : Base Media
    Codec ID : isom
    File size : 49.3 MiB
    Duration : 10mn 55s
    Overall bit rate : 632 Kbps
    Writing application : Lavf54.37.100
    Video
    ID : 1
    Format : AVC
    Format/Info : Advanced Video Codec
    Format profile :High@L2.2
    Format settings, CABAC : Yes
    Format settings, ReFrames : 4 frames
    Codec ID : avc1
    Codec ID/Info : Advanced Video Coding
    Duration : 10mn 55s
    Bit rate : 500 Kbps
    Width : 640 pixels
    Height : 360 pixels
    Display aspect ratio : 16:9
    Frame rate mode : Constant
    Frame rate : 15.000 fps
    Color space : YUV
    Chroma subsampling : 4:2:0
    Bit depth : 8 bits
    Scan type : Progressive
    Bits/(Pixel*Frame) : 0.145
    Stream size : 39.0 MiB (79%)
    Writing library : x264 core 124
    Encoding settings : cabac=1/ref=3/deblock=1:0:0/analyse=0x3:0x113/me=hex/subme=7/psy=1/psy_rd=1.00:0.00/mixed_ref=1/me_range=16/chroma_me=1/trellis=1/8x8dct=1/cqm=0/deadzone=21, 11/fast_pskip=1/chroma_qp_offset=-2/threads=4/sliced_threads=0/nr=0/decimate=1/interlaced=0/bluray_compat=0/constrained_intra=0/bframes=3/b_pyramid=2/b_adapt=1/b_bias=0/direct=1/weightb=1/open_gop=0/weightp=2/keyint=250/keyint_min=15/scenecut=40/intra_refresh=0/rc_lookahead=40/rc=abr/mbtree=1/bitrate=500/ratetol=1.0/qcomp=0.60/qpmin=0/qpmax=69/qpstep=4/ip_ratio=1.40/aq=1:1.00
    Language : English
    Audio
    ID : 2
    Format : AAC
    Format/Info : Advanced Audio Codec
    Format profile : LC
    Codec ID : 40
    Duration : 10mn 55s
    Bit rate mode : Constant
    Bit rate : 128 Kbps
    Channel(s) : 2 channels
    Channel positions : Front: L R
    Sampling rate : 44.1 KHz
    Compression mode : Lossy
    Stream size : 9.99 MiB (20%)


    Скриншоты для ознакомления




    Иван Чурсин | Онлайн-коучинг: Суперпамять (2013) WEB-DL [H.264]
    загрузка...
    Рейтинг →
     (голосов: 1, оценка 4/5, голосовать можно 1 раз )

    Другие торренты по теме:

  • Иван Чурсин | Скорочтение + Суперпамять (2013) [MP3, DOC, DOCX, JPG] скачать через торрент бесплатно
  • Иван Чурсин | Онлайн-коучинг: Скорочтение + VIP (2013) WEB-DL [H.264] скачать через торрент бесплатно
  • Дмитрий Новосельцев, Иван Чурсин | НЛП Практик + VIP-блок (2013) WEB-DL [H.264] скачать через торрент бесплатно


    • Комментарии (0):

      Информация

      Информация

        Посетители, находящиеся в группе Гости, не могут оставлять комментарии в данной новости.

        ↓ Меню




        ↓ Опрос

        Вы добавили сайт в закладки?
        Да
        Нет


        Top 10 за месяц (Книги)

        Андрей Сазонов | Мифы о нашем теле. Научный подход к примитивным вопросам (2017) [FB2]

        (скачиваний: 31)
        Элла Берту, Сьюзен Элдеркин | Книга как лекарство. Скорая литературная помощь от А до Я (2016) [FB2, EPUB]

        (скачиваний: 28)
        Оуэйн Сервис, Рори Галлахер | Начинай с малого. Научно доказанная система достижения больших целей (2018) [PDF, FB2, EPUB]

        (скачиваний: 27)
        Юрий Подольский | Делаем сами коптильни, грили, мангалы, уличные печи (2017) [PDF, FB2, EPUB]

        (скачиваний: 25)
        Евгений Старухин | Цикл «Лесовик» [4 книги. Обновляемая] (2015-2017) [FB2]

        (скачиваний: 24)
        Григорий-Азиз | Фишки Ворда и Экселя [Word and Excel] (2017) PCRec [H.264]

        (скачиваний: 23)
        Дмитрий Петров, Алексей Кржижевский | Серия: Полиглот. Выучим иностранный язык за 16 часов [5 книг] (2014-2015) [PDF, DJVU]

        (скачиваний: 23)
        Кевин Келли | Неизбежно. 12 технологических трендов, которые определяют наше будущее (2017) [PDF, EPUB, MOBI]

        (скачиваний: 22)
        Наталья Корикова | Полезные и вкусные бутерброды. Алгоритм приготовления и рецепты (2017) [PDF]

        (скачиваний: 21)
        Юрий Морозов | Ремонт дачного дома своими руками. Полное руководство (2017) [PDF]

        (скачиваний: 21)