.
Авторизация | Регистрация
Хочешь лучшие торренты? Добавь свой email!
Добавить

Торрент скачать бесплатно

» » Специалист | Основы администрирования Oracle 11g, часть I (2013) PCRec [H.264] скачать через торрент бесплатно




    Специалист | Основы администрирования Oracle 11g, часть I (2013) PCRec [H.264] скачать через торрент бесплатно

    Опубликовал: Админ | Дата: 13-11-2015, 04:04 | Просмотров: 168

    Автор (режиссер): Специалист
    Жанр: Базы данных

    Описание

    Цель курса — дать администратору базы данных основные знания и навыки, необходимые для администрирования базы данных Oracle 11g. В курсе рассматривается архитектура базы данных, взаимодействие между собой ее компонентов. Слушатели изучают, как устанавливается программное обеспечение и сопровождается база данных Oracle 11g. Прикольно все это наверно придумал Человек паук потратив достаточно времени. Слушатели узнают, как создается база данных, изучают средства эффективного управления компонентами базы данных, в том числе мониторинга производительности, обеспечения безопасности и выполнения резервирования и восстановления базы данных.
    Продолжительность: 12: 02: 45
    Качество видео: PCRec
    Видео: AVC/H.264, 1024x768, ~68, 8 kbps
    Аудио: AAC, 2 ch, 96 kbps
    Код:

    Общее
    Полное имя : J:Video LessonsВидеокурсы от \'\'Специалист\'\'Администрирование Oracle 11g3. Основы администрирования (часть I)Модули 1-3.mp4
    Формат : MPEG-4
    Профиль формата : Base Media
    Идентификатор кодека : isom
    Размер файла : 213 Мбайт
    Продолжительность : 2 ч. 56 м.
    Общий поток : 168 Кбит/сек
    Программа кодирования : Lavf56.4.102
    Видео
    Идентификатор : 1
    Формат : AVC
    Формат/Информация : Advanced Video Codec
    Профиль формата :Baseline@L3.1
    Параметр CABAC формата : Нет
    Параметр ReFrames формата : 3 кадра
    Идентификатор кодека : avc1
    Идентификатор кодека/Информация : Advanced Video Coding
    Продолжительность : 2 ч. 56 м.
    Битрейт : 68, 8 Кбит/сек
    Ширина : 1024 пикс.
    Высота : 768 пикс.
    Соотношение сторон : 4:3
    Режим частоты кадров : Постоянный
    Частота кадров : 15, 000 кадр/сек
    Цветовое пространство : YUV
    Подвыборка цветности : 4:2:0
    Битовая глубина : 8 бит
    Тип развёртки : Прогрессивная
    Бит/(Пиксели*Кадры) : 0.006
    Размер потока : 86, 9 Мбайт (41%)
    Библиотека кодирования : x264 core 142 r2479 dd79a61
    Настройки программы : cabac=0/ref=3/deblock=1:0:0/analyse=0x1:0x111/me=hex/subme=7/psy=1/psy_rd=1.00:0.00/mixed_ref=1/me_range=16/chroma_me=1/trellis=1/8x8dct=0/cqm=0/deadzone=21, 11/fast_pskip=1/chroma_qp_offset=-2/threads=3/lookahead_threads=1/sliced_threads=0/nr=0/decimate=1/interlaced=0/bluray_compat=0/constrained_intra=0/bframes=0/weightp=0/keyint=250/keyint_min=15/scenecut=40/intra_refresh=0/rc_lookahead=40/rc=crf/mbtree=1/crf=2.0/qcomp=0.60/qpmin=0/qpmax=69/qpstep=4/ip_ratio=1.40/aq=1:1.00
    Язык : English
    Аудио
    Идентификатор : 2
    Формат : AAC
    Формат/Информация : Advanced Audio Codec
    Профиль формата : LC
    Идентификатор кодека : 40
    Продолжительность : 2 ч. 56 м.
    Вид битрейта : Постоянный
    Битрейт : 96, 0 Кбит/сек
    Каналы : 2 канала
    Расположение каналов : Front: L R
    Частота : 44, 1 КГц
    Метод сжатия : С потерями
    Размер потока : 122 Мбайт (57%)
    Язык : English


    Скриншоты для ознакомления




    Специалист | Основы администрирования Oracle 11g, часть I (2013) PCRec [H.264]
    загрузка...
    Рейтинг →
     (голосов: 1, оценка 4/5, голосовать можно 1 раз )

    Другие торренты по теме:

  • Специалист | Основы экономики для руководителей, менеджеров и специалистов (2014) PCRec скачать через торрент бесплатно
  • Специалист | Основы управленческого учета и бюджетирование (2013) PCRec скачать через торрент бесплатно
  • Специалист | Основы программирования и баз данных (2014) PCRec скачать через торрент бесплатно
  • Специалист | Основы Linux (2016) PCRec
  • Специалист | Zend Framework 2: Основы разработки + Расширенные возможности (2013) PCRec
  • Специалист. Перлин В. | PostgreSQL: Уровень 1. Основы SQL (2015) PCRec
  • В.А. Перлин | Специалист | Python. Уровень 1. Основы программирования (2015) PCRec


    • Комментарии (0):

      Информация

      Информация

        Посетители, находящиеся в группе Гости, не могут оставлять комментарии в данной новости.

        ↓ Меню




        ↓ Опрос

        Вы добавили сайт в закладки?
        Да
        Нет


        Top 10 за месяц (Книги)