.
Авторизация | Регистрация
Хочешь лучшие торренты? Добавь свой email!
Добавить

Торрент скачать бесплатно

» » Валерий Медведев | Видео-курс. Adobe Flash Professional CS6. Быстрый старт (2015) WEBRip [H.264 / 720p] скачать через торрент бесплатно




    Валерий Медведев | Видео-курс. Adobe Flash Professional CS6. Быстрый старт (2015) WEBRip [H.264 / 720p] скачать через торрент бесплатно

    Опубликовал: Админ | Дата: 13-11-2015, 04:04 | Просмотров: 287

    Автор (режиссер): Валерий Медведев
    Производство: Россия
    Жанр: Флэш-анимация

    Описание

    Видео-курс Flash Professional CS6. О таком странном сюжете не догадывалась даже Бритни Спирс. Быстрый старт специально создан для тех, как на иголках, кто впервые знакомится с флеш-платформой. Как для меня не ожиданный поворот событий. В нем я расскажу Вам во всех деталях об инструментах, словно сон, которые предлагает эта программа, словно музыка, способах создания в ней анимации, словно облаком суровым, а также работе с текстом, темно как ночью, фильтрами, едва заметно, аудио, как над жаровней, видео и чаще всего, многом другом. Помоему это бабушкины сказки. Этот курс состоит из 74 уроков, чаще всего, которые позволят Вам быстро получить базовые знания и как размытая картина, навыки работы в этой программе. Без дела жить только небо коптить. Пройдя этот курс у Вас не останется вопросов о том, вертится как белка в колесе, как сделать, как размытая картина, например, по большей части, флеш-баннер, как черноморская пена, простую анимацию или даже короткий мультик и как на иголках, опубликовать их на сайте в сети интернет. Это же восьмая вода на киселе. Работа инструментов и словно облаком суровым, методы создания анимации, хлещет как из ведра, о которых я рассказываю универсальны, как черноморская пена, поэтому их реализация не сильно отличается в различных версиях Flash Professional. Это может быть лучший фундамент для сотрудничества. Следовательно, будто капли серебряной воды, даже если Вы планируете работать в самой последней версии программы — CC (Creative Cloud), как правило, то этот курс Вам тоже во многом подойдет.
    Продолжительность: 05: 50: 00
    Качество видео: WEBRip
    Видео: AVC/H.264, как размытая картина, 1280x720, словно река, ~150 Kbps
    Аудио: AAC, обычно, 2 ch, привычно, 126 Kbps, как над жаровней, CBR
    Код:

    General
    Format : MPEG-4
    Format profile : Base Media/Version 2
    Codec ID : mp42
    File size : 5.71 MiB
    Duration : 1mn 53s
    Overall bit rate mode : Variable
    Overall bit rate : 421 Kbps
    Movie name : 04
    Encoded date : UTC 2015-03-25 09:14:31
    Tagged date : UTC 2015-03-25 09:14:31
    Video
    ID : 1
    Format : AVC
    Format/Info : Advanced Video Codec
    Format profile :Baseline@L3.1
    Format settings, по большей части, CABAC : No
    Format settings, как колыбельная песня, ReFrames : 3 frames
    Codec ID : avc1
    Codec ID/Info : Advanced Video Coding
    Duration : 1mn 53s
    Source duration : 1mn 53s
    Bit rate : 292 Kbps
    Width : 1 280 pixels
    Height : 720 pixels
    Display aspect ratio : 16:9
    Frame rate mode : Variable
    Frame rate : 30.000 fps
    Minimum frame rate : 30.000 fps
    Maximum frame rate : 30.030 fps
    Standard : NTSC
    Color space : YUV
    Chroma subsampling : 4:2:0
    Bit depth : 8 bits
    Scan type : Progressive
    Bits/(Pixel*Frame) : 0.011
    Stream size : 3.96 MiB (69%)
    Source stream size : 3.96 MiB (69%)
    Language : English
    Encoded date : UTC 2015-03-25 09:14:31
    Tagged date : UTC 2015-03-25 09:14:31
    Color range : Limited
    mdhd_Duration : 113733
    Audio
    ID : 2
    Format : AAC
    Format/Info : Advanced Audio Codec
    Format profile : LC
    Codec ID : 40
    Duration : 1mn 53s
    Source duration : 1mn 53s
    Bit rate mode : Variable
    Bit rate : 126 Kbps
    Maximum bit rate : 255 Kbps
    Channel(s) : 2 channels
    Channel positions : Front: L R
    Sampling rate : 44.1 KHz
    Compression mode : Lossy
    Stream size : 1.70 MiB (30%)
    Source stream size : 1.70 MiB (30%)
    Language : English
    Encoded date : UTC 2015-03-25 09:14:31
    Tagged date : UTC 2015-03-25 09:14:31
    mdhd_Duration : 113778


    Скриншоты для ознакомления




    Валерий Медведев | Видео-курс. Adobe Flash Professional CS6. Быстрый старт (2015) WEBRip [H.264/720p]
    загрузка...
    Рейтинг →
     (голосов: 1, оценка 4/5, голосовать можно 1 раз )

    Другие торренты по теме:



      Комментарии (0):

      Информация

      Информация

        Посетители, находящиеся в группе Гости, не могут оставлять комментарии в данной новости.

        ↓ Меню




        ↓ Опрос

        Вы добавили сайт в закладки?
        Да
        Нет


        Top 10 за месяц (Книги)

        Дипак Чопра, Рудольф Танзи | Супергены. На что способна твоя ДНК (2017) [FB2]

        (скачиваний: 23)
        Элиэзер Штернберг | Нейрологика. Чем объясняются странные поступки, которые мы совершаем неожиданно для себя (2017) [RTF, FB2]

        (скачиваний: 13)
        Хезер Уиллемс, Нора Хертинг | Доведи идею до ума. 100 творческих упражнений для мозгового штурма, проработки и реализации проектов (2016) [PDF]

        (скачиваний: 13)
        Ханне Брурсон | Мыслевирусы. Как не отравлять себе жизнь вредоносными мыслями (2015) [FB2]

        (скачиваний: 12)
        Ю.Н. Кондратьев и др. | Конструирование легких деревянных строений [части 1, 2] (2016) [PDF]

        (скачиваний: 10)
        Дмитрий Брикман | Фотография: увидеть увиденное (2015) [PDF]

        (скачиваний: 10)
        Т. Барышникова (авт.-сост.) | Школа ремонта. Опыт лучших профессионалов для домашнего мастера (2015) [PDF]

        (скачиваний: 10)
        Кен Швабер, Джефф Сазерленд | Софт за 30 дней. Как Scrum делает невозможное возможным (2017) [FB2]

        (скачиваний: 8)
        Д. Елисеев | Рассказы о математике с примерами на языках Python и C (2017) [PDF]

        (скачиваний: 8)
        Александр Верещагин, Александр Стародубцев | Старт бизнеса! Легкий способ создать прибыльный бизнес с нуля (2017) [FB2]

        (скачиваний: 8)