.
Авторизация | Регистрация
Хочешь лучшие торренты? Добавь свой email!
Добавить

Торрент скачать бесплатно

» » Highlights School | Продвинутый курс Photoshop (2015) PCRec [H.264] скачать через торрент бесплатно




    Highlights School | Продвинутый курс Photoshop (2015) PCRec [H.264] скачать через торрент бесплатно

    Опубликовал: Админ | Дата: 8-11-2015, 04:06 | Просмотров: 819

    Автор (режиссер): Highlights School
    Жанр: Ретушь фото

    Описание

    Курс идеально подойдет для тех, кто уже знает основы работы с Photoshop.
    Курс ведет известный фотограф и ретушер Юлия Пустовит. После начального курса с Юлей, продвинутый будет продолжением, которое сделает вас настоящим ретушером.
    Вы получите уникальный алгоритм обработки hi-end ретуши. Новые техники, обработка кожи, обработка волос, ресницы, губы, брови, глаза, продвинутая работа с объемом и цветокоррекцией, работа с кривыми. Последние два урока будут полностью посвящены созданию качественных коллажей и добавлению творческих эффектов. Как обычно в программе приятная теплая атмосфера, много сюрпризов, хорошая музыка и еще много нового и в большинстве случаев интересного!
    Продолжительность: ~ 30: 00: 00
    Качество видео: PCRec
    Видео: AVC/H.264, 1680x1050, ~1398 Kbps
    Аудио: AAC, 2 ch, 132 Kbps, VBR
    Код:

    General
    Complete name : S:Юлия Пустовит - Продвинутый курс Photoshop (2015)1 УрокВидео запись. 1 часть.mp4
    Format : MPEG-4
    Format profile : Base Media
    Codec ID : isom
    File size : 563 MiB
    Duration : 51mn 20s
    Overall bit rate mode : Variable
    Overall bit rate : 1 533 Kbps
    Video
    ID : 2
    Format : AVC
    Format/Info : Advanced Video Codec
    Format profile :Baseline@L4.0
    Format settings, CABAC : No
    Format settings, ReFrames : 1 frame
    Codec ID : avc1
    Codec ID/Info : Advanced Video Coding
    Duration : 51mn 20s
    Bit rate : 1 398 Kbps
    Width : 1 680 pixels
    Height : 1 050 pixels
    Display aspect ratio : 16:10
    Frame rate mode : Variable
    Frame rate : 19.996 fps
    Minimum frame rate : 6.667 fps
    Maximum frame rate : 37.236 fps
    Color space : YUV
    Chroma subsampling : 4:2:0
    Bit depth : 8 bits
    Scan type : Progressive
    Bits/(Pixel*Frame) : 0.040
    Stream size : 513 MiB (91%)
    Writing library : x264 core 142 r2479 dd79a61
    Encoding settings : cabac=0/ref=1/deblock=0:0:0/analyse=0:0/me=dia/subme=0/psy=1/psy_rd=1.00:0.00/mixed_ref=0/me_range=16/chroma_me=1/trellis=0/8x8dct=0/cqm=0/deadzone=21, 11/fast_pskip=1/chroma_qp_offset=0/threads=12/lookahead_threads=2/sliced_threads=0/nr=0/decimate=1/interlaced=0/bluray_compat=0/constrained_intra=0/bframes=0/weightp=0/keyint=250/keyint_min=20/scenecut=0/intra_refresh=0/rc=crf/mbtree=0/crf=21.0/qcomp=0.60/qpmin=0/qpmax=69/qpstep=4/ip_ratio=1.40/aq=0
    Audio
    ID : 1
    Format : AAC
    Format/Info : Advanced Audio Codec
    Format profile : LC
    Codec ID : 40
    Duration : 51mn 20s
    Duration_FirstFrame : -23ms
    Bit rate mode : Variable
    Bit rate : 132 Kbps
    Channel count : 2 channels
    Channel positions : Front: L R
    Sampling rate : 44.1 KHz
    Compression mode : Lossy
    Stream size : 48.1 MiB (9%)
    mdhd_Duration : 3080104


    Скриншоты для ознакомления




    Highlights School | Продвинутый курс Photoshop (2015) PCRec [H.264]
    загрузка...
    Рейтинг →
     (голосов: 1, оценка 4/5, голосовать можно 1 раз )

    Другие торренты по теме:

  • Highlights School | Портретная обработка (2015) PCRec [H.264] скачать через торрент бесплатно
  • Highlights School | Основы веб-дизайна (2015) PCRec [H.264 / 720p]
  • Highlights School | Основы фотографии (2016) PCRec


    • Комментарии (0):

      Информация

      Информация

        Посетители, находящиеся в группе Гости, не могут оставлять комментарии в данной новости.

        ↓ Меню




        ↓ Опрос

        Вы добавили сайт в закладки?
        Да
        Нет


        Top 10 за месяц (Книги)