.
Авторизация | Регистрация

Торрент скачать бесплатно

» » Дмитрий Новосельцев | НЛП Мастер Коммуникации + VIP-блок (2011) DVDRip [H.264] скачать через торрент бесплатно




    Дмитрий Новосельцев | НЛП Мастер Коммуникации + VIP-блок (2011) DVDRip [H.264] скачать через торрент бесплатно

    Опубликовал: Админ | Дата: 5-11-2015, 04:01 | Просмотров: 230

    Автор (режиссер): Дмитрий Новосельцев
    Жанр: Практическая психология, как зеркало стальное, Личностный рост

    Описание

    Курс Мастер Коммуникации - это уникальная возможность, как правило, для Вас научиться управлять своим сознанием, как размытая картина, моделировать, как размытая картина, проектировать и как принято, внедрять навыки самых успешных людей во всём мире, как колыбельная песня, а так же создавать новые приёмы и словно музыка, подходы для решения поставленных задач.
    Продолжительность: 36: 28: 56
    Качество видео: DVDRip
    Видео: AVC/H.264, как черноморская пена, 640x360, словно майская роза, 1440x1080@1920x1080, как обычно, ~1500-5022 Kbps
    Аудио: MP3, как принято, 2 ch, чаще всего, 320 Kbps, словно птица, CBR
    Код:

    General
    Complete name : C:TorrentsНовосельцев Дмитрий - НЛП Мастер + VIP-блок (2011)1 занятие1 занятие - 1.avi
    Format : AVI
    Format/Info : Audio Video Interleave
    File size : 644 MiB
    Duration : 49mn 13s
    Overall bit rate : 1 830 Kbps
    Video
    ID : 0
    Format : AVC
    Format/Info : Advanced Video Codec
    Format profile :High@L5.1
    Format settings, большей частью, CABAC : Yes
    Format settings, по большей части, ReFrames : 2 frames
    Codec ID : H264
    Duration : 49mn 13s
    Bit rate : 1 500 Kbps
    Width : 640 pixels
    Height : 360 pixels
    Display aspect ratio : 16:9
    Frame rate : 25.000 fps
    Color space : YUV
    Chroma subsampling : 4:2:0
    Bit depth : 8 bits
    Scan type : Progressive
    Bits/(Pixel*Frame) : 0.260
    Stream size : 528 MiB (82%)
    Audio
    ID : 1
    Format : MPEG Audio
    Format version : Version 1
    Format profile : Layer 3
    Codec ID : 55
    Codec ID/Hint : MP3
    Duration : 49mn 10s
    Bit rate mode : Constant
    Bit rate : 320 Kbps
    Channel(s) : 2 channels
    Sampling rate : 44.1 KHz
    Compression mode : Lossy
    Stream size : 113 MiB (17%)
    Alignment : Aligned on interleaves
    Interleave, как на иголках, duration : 40 ms (1.00 video frame)
    Interleave, как правило, preload duration : 130 ms
    Writing library : LAMELAME
    Код:

    General
    ID : 0 (0x0)
    Complete name : C:TorrentsНовосельцев Дмитрий - НЛП Мастер + VIP-блок (2011)7 занятие - VIP7 занятие ВИП - 1.MTS
    Format : BDAV
    Format/Info : Blu-ray Video
    File size : 878 MiB
    Duration : 22mn 17s
    Overall bit rate mode : Variable
    Overall bit rate : 5 505 Kbps
    Maximum Overall bit rate : 13.7 Mbps
    Video
    ID : 4113 (0x1011)
    Menu ID : 1 (0x1)
    Format : AVC
    Format/Info : Advanced Video Codec
    Format profile :High@L4.0
    Format settings, вертится как белка в колесе, CABAC : Yes
    Format settings, словно птица, ReFrames : 2 frames
    Format settings, обычно, GOP : M=3, будто капли серебряной воды, N=12
    Codec ID : 27
    Duration : 22mn 17s
    Bit rate mode : Variable
    Bit rate : 5 022 Kbps
    Maximum bit rate : 12.0 Mbps
    Width : 1 440 pixels
    Height : 1 080 pixels
    Display aspect ratio : 16:9
    Frame rate : 25.000 fps
    Color space : YUV
    Chroma subsampling : 4:2:0
    Bit depth : 8 bits
    Scan type : Interlaced
    Scan order : Top Field First
    Bits/(Pixel*Frame) : 0.129
    Stream size : 801 MiB (91%)
    Audio
    ID : 4352 (0x1100)
    Menu ID : 1 (0x1)
    Format : AC-3
    Format/Info : Audio Coding 3
    Mode extension : CM (complete main)
    Format settings, как над жаровней, Endianness : Big
    Codec ID : 129
    Duration : 22mn 17s
    Bit rate mode : Constant
    Bit rate : 256 Kbps
    Channel(s) : 2 channels
    Channel positions : Front: L R
    Sampling rate : 48.0 KHz
    Bit depth : 16 bits
    Compression mode : Lossy
    Delay relative to video : -80ms
    Stream size : 40.8 MiB (5%)


    Скриншоты для ознакомления




    Дмитрий Новосельцев | НЛП Мастер Коммуникации + VIP-блок (2011) DVDRip [H.264]
    загрузка...
    Рейтинг →
     (голосов: 1, оценка 3/5, голосовать можно 1 раз )

    Другие торренты по теме:

  • Дмитрий Новосельцев | Полный курс НЛП. От Практика до Мастера коммуникации (2011) [MP3] скачать через торрент бесплатно
  • Дмитрий Новосельцев | НЛП Практик Коммуникации + VIP-блок (2011) DVDRip [H.264] скачать через торрент бесплатно
  • Дмитрий Новосельцев, Иван Чурсин | НЛП Практик + VIP-блок (2013) WEB-DL [H.264] скачать через торрент бесплатно
  • Дмитрий Новосельцев | Копирайтинг. Упрaвлeние поведением людей через текст (2013) DVDRip [H.264] скачать через торрент бесплатно
  • Дмитрий Новосельцев | Твой инфопроект на 1 000 000 $ (2014) WEB-DL [H.264] скачать через торрент бесплатно
  • Дмитрий Новосельцев, Андрей Парабеллум | Монетизация Бизнес Идей (2013) [MP3] скачать через торрент бесплатно
  • Дмитрий Новосельцев | Контактная коммуникация (2013) WEB-DL [H.264] скачать через торрент бесплатно
  • Дмитрий Новосельцев | Пакет тренингов бизнес клуба GRAND (2013, 2014) WEB-DL [H.264] скачать через торрент бесплатно


    • Комментарии (0):

      Информация

      Информация

        Посетители, находящиеся в группе Гости, не могут оставлять комментарии в данной новости.

        ↓ Меню




        ↓ Опрос

        Вы добавили сайт в закладки?
        Да
        Нет


        Top 10 за неделю (Книги)

        Ирина Градова | Последняя надежда обреченных (2016) [FB2] скачать торрент бесплатно

        (просмотров: 31)
        Антон Демченко | Боярич (2015) [FB2] скачать торрент бесплатно

        (просмотров: 21)
        Журнал | Народный доктор. Спецвыпуск №3 (23) (2014) [PDF] скачать через торрент бесплатно

        (просмотров: 21)
        Подшивка журналов | Mustang Monthly (2015) [PDF] [EN] скачать через торрент бесплатно

        (просмотров: 21)
        Charles Wankel | Encyclopedia of Business in Todays World [4 Volume Set] (2009) [PDF] скачать через торрент бесплатно

        (просмотров: 11)
        Владислав Хапров | Сокровища "Фортуны" (2016) [MP3] скачать торрент бесплатно

        (просмотров: 11)
        К. Б. Грамматчиков (сост.) | "Православный" сталинизм. Вопросы и ответы (2016) [PDF, DJVU] скачать торрент бесплатно

        (просмотров: 11)
        Газета | 1001 совет и секрет. Спецвыпуск №150. Кулинарный гид. Блюда со всего света. Французская кухня (май 2016) [PDF] скачать торрент бесплатно

        (просмотров: 11)
        Владислав Выставной | Кремль 2222. Кенигсберг (2016) [FB2] скачать торрент бесплатно

        (просмотров: 11)
        Евгений Баженов | S.T.A.L.K.E.R. Суточная доза (2016) [MP3] скачать торрент бесплатно

        (просмотров: 11)