.
Авторизация | Регистрация

Торрент скачать бесплатно

» » Дмитрий Новосельцев | НЛП Практик Коммуникации + VIP-блок (2011) DVDRip [H.264] скачать через торрент бесплатно




    Дмитрий Новосельцев | НЛП Практик Коммуникации + VIP-блок (2011) DVDRip [H.264] скачать через торрент бесплатно

    Опубликовал: Админ | Дата: 4-11-2015, 04:01 | Просмотров: 204

    Автор (режиссер): Дмитрий Новосельцев
    Жанр: Практическая психология, едва заметно, Личностный рост

    Описание

    Практик Коммуникации - это уникальная методология, словно майская роза, благодаря которой мы сможем достичь значительных успехов.
    Это методика, как черноморская пена, позволяющая более точно и как над жаровней, полно воспринимать информацию об окружающих людях и привычно, событиях и словно облаком суровым использовать её наилучшим образом для достижения поставленных целей. Рядом пронесли цветы в корзинах. Практик Коммуникации – это модели эффективного сбора информации, темно как ночью, поиска решений, как колыбельная песня, управления внутренними состояниями, вертится как белка в колесе, поведением и словно птица, стилем мышления, обычно, а так же способность определить и словно птица, сформулировать комплекс целей и как колыбельная песня, задач, чаще всего, позволяющая управлять своим будущим.
    Продолжительность: 53: 21: 19
    Качество видео: DVDRip
    Видео: AVC/H.264, словно сон, 640х360, как размытая картина, 1280х720, как обычно, ~773-1414 Kbps
    Аудио: MP3, едва заметно, 2 ch, как зеркало стальное, 80.0 Kbps, как над жаровней, CBR
    Код:

    General
    Complete name : C:TorrentsНовосельцев Дмитрий - НЛП Практик + VIP-блок (2011)1 день1.mp4
    Format : MPEG-4
    Format profile : Base Media
    Codec ID : isom
    File size : 236 MiB
    Duration : 38mn 36s
    Overall bit rate : 856 Kbps
    Encoded date : UTC 2013-07-05 17:19:57
    Tagged date : UTC 2013-07-05 17:19:57
    Video
    ID : 1
    Format : AVC
    Format/Info : Advanced Video Codec
    Format profile :High@L3.1
    Format settings, привычно, CABAC : Yes
    Format settings, как на иголках, ReFrames : 4 frames
    Codec ID : avc1
    Codec ID/Info : Advanced Video Coding
    Duration : 38mn 36s
    Bit rate : 773 Kbps
    Maximum bit rate : 1 414 Kbps
    Width : 1 280 pixels
    Height : 720 pixels
    Display aspect ratio : 16:9
    Frame rate mode : Constant
    Frame rate : 25.000 fps
    Color space : YUV
    Chroma subsampling : 4:2:0
    Bit depth : 8 bits
    Scan type : Progressive
    Bits/(Pixel*Frame) : 0.034
    Stream size : 213 MiB (90%)
    Writing library : x264 core 129 r2245 bc13772
    Encoding settings : cabac=1/ref=2/deblock=0:0:0/analyse=0x3:0x113/me=hex/subme=6/psy=1/psy_rd=1.00:0.00/mixed_ref=1/me_range=16/chroma_me=1/trellis=1/8x8dct=1/cqm=0/deadzone=21, хлещет как из ведра, 11/fast_pskip=1/chroma_qp_offset=-2/threads=12/lookahead_threads=2/sliced_threads=0/nr=0/decimate=1/interlaced=0/bluray_compat=0/constrained_intra=0/bframes=3/b_pyramid=2/b_adapt=1/b_bias=0/direct=1/weightb=1/open_gop=0/weightp=1/keyint=250/keyint_min=25/scenecut=40/intra_refresh=0/rc_lookahead=30/rc=2pass/mbtree=1/bitrate=773/ratetol=1.0/qcomp=0.60/qpmin=0/qpmax=69/qpstep=4/cplxblur=20.0/qblur=0.5/ip_ratio=1.40/aq=1:1.00
    Encoded date : UTC 2013-06-27 14:45:26
    Tagged date : UTC 2013-07-05 17:19:59
    Audio
    ID : 2
    Format : MPEG Audio
    Format version : Version 1
    Format profile : Layer 3
    Mode : Joint stereo
    Mode extension : MS Stereo
    Codec ID : 6B
    Duration : 38mn 36s
    Bit rate mode : Constant
    Bit rate : 80.0 Kbps
    Maximum bit rate : 83.5 Kbps
    Channel(s) : 2 channels
    Sampling rate : 32.0 KHz
    Compression mode : Lossy
    Stream size : 22.1 MiB (9%)
    Title : mp3#trackID=1@GPAC0.5.1-DEV-rev4283
    Writing library : LAME3.99r
    Encoding settings : -m j -V 4 -q 2 -lowpass 13.5 -b 80
    Encoded date : UTC 2013-07-05 17:19:59
    Tagged date : UTC 2013-07-05 17:19:59


    Скриншоты для ознакомления




    Дмитрий Новосельцев | НЛП Практик Коммуникации + VIP-блок (2011) DVDRip [H.264]
    загрузка...
    Рейтинг →
     (голосов: 1, оценка 4/5, голосовать можно 1 раз )

    Другие торренты по теме:

  • Дмитрий Новосельцев | Полный курс НЛП. От Практика до Мастера коммуникации (2011) [MP3] скачать через торрент бесплатно
  • Дмитрий Новосельцев | НЛП Мастер Коммуникации + VIP-блок (2011) DVDRip [H.264] скачать через торрент бесплатно
  • Дмитрий Новосельцев, Иван Чурсин | НЛП Практик + VIP-блок (2013) WEB-DL [H.264] скачать через торрент бесплатно
  • Дмитрий Новосельцев | Копирайтинг. Упрaвлeние поведением людей через текст (2013) DVDRip [H.264] скачать через торрент бесплатно
  • Дмитрий Новосельцев | Твой инфопроект на 1 000 000 $ (2014) WEB-DL [H.264] скачать через торрент бесплатно
  • Дмитрий Новосельцев, Андрей Парабеллум | Монетизация Бизнес Идей (2013) [MP3] скачать через торрент бесплатно
  • Дмитрий Новосельцев | Контактная коммуникация (2013) WEB-DL [H.264] скачать через торрент бесплатно
  • Дмитрий Новосельцев | Пакет тренингов бизнес клуба GRAND (2013, 2014) WEB-DL [H.264] скачать через торрент бесплатно


    • Комментарии (0):

      Информация

      Информация

        Посетители, находящиеся в группе Гости, не могут оставлять комментарии в данной новости.

        ↓ Меню




        ↓ Опрос

        Вы добавили сайт в закладки?
        Да
        Нет


        Top 10 за неделю (Книги)

        С.И. Брук, В.С. Апенченко (ред.) | Атлас народов мира (1964) DJVU] скачать торрент бесплатно

        (просмотров: 1)
        Наталия Попович | Лечение радикулита и ревматизма народными средствами (2016) [FB2] скачать торрент бесплатно

        (просмотров: 1)
        Джозефина Тэй | Шиллинг на свечи (2012) [MP3] скачать торрент бесплатно

        (просмотров: 1)
        Марк Сондерс | Бедствие (1992) [FB2] скачать торрент бесплатно

        (просмотров: 1)
        Сергей Извольский | Гвардеец Его величества (2017) [FB2] скачать торрент бесплатно

        (просмотров: 1)
        Сергей Зайцев | Паломничество к Врагу (2017) [MP3] скачать торрент бесплатно

        (просмотров: 1)
        Евгений Колесов | Китаец (2017) [FB2] скачать торрент бесплатно

        (просмотров: 1)
        Мария Колпакова | Капризный огурец. Как вырастить без ошибок 50 шагов к успеху (2017) [FB2] скачать торрент бесплатно

        (просмотров: 1)
        Леонид Волынский | Лицо времени: Книга о русских художниках (2017) [MP3] скачать торрент бесплатно

        (просмотров: 1)
        Мария Колпакова | Планировка сада и огорода. 50 разумных идей (2017) [FB2] скачать торрент бесплатно

        (просмотров: 1)