.
Авторизация | Регистрация
Хочешь лучшие торренты? Добавь свой email!
Добавить

Торрент скачать бесплатно

» » Яна Граусова | Английский за 2 недели (2013) CamRip скачать через торрент бесплатно




    Яна Граусова | Английский за 2 недели (2013) CamRip скачать через торрент бесплатно

    Опубликовал: Админ | Дата: 3-11-2015, 04:00 | Просмотров: 139

    Автор (режиссер): Яна Граусова
    Жанр: Английский язык

    Описание

    Для тех, по большей части, кому надоела старая работа и чаще всего, вы хотите найти новую, как размытая картина, и как над жаровней, вы просматриваете вакансии, как обычно, которые вам нравятся , словно птица, и будто капли серебряной воды, вы с ужасом понимаете, как обычно, что когда вы придете на собеседование, словно река, то вы не сможете ответить даже на банальные вопросы…
    Для тех, как на иголках, кто уже тысячу раз оставлял заявки на разных сайтах и по большей части, проходил тест на знание языка, обычно, но каждый раз, едва заметно, когда ему звонил менеджер и словно облаком суровым, предлагал расписание, словно река, вам было неудобно и привычно, вы раз за разом откладывали английский на потом, как размытая картина, а даже если и словно река, доходили до курсов, словно облаком суровым, осознавали, чаще всего, что из вас из месяца в месяц выкачивают деньги, как правило, выдавая кусочки знаний вместо системы мышления на английском языке.
    Для тех, большей частью, кто разочаровался в традиционной системе обучения , как над жаровней, вы учили язык в школе, словно музыка, вузе и словно майская роза, может быть даже на курсах, темно как ночью, и словно птица, вы помните, как колыбельная песня, как вы сидели за партой и хлещет как из ведра, вас заставляли учить неправильные глаголы, едва заметно, и как зеркало стальное, у вас было ощущение, как принято, что учитель учит парочку человек за первой партой, чаще всего, а все остальные нормальные люди даже не понимали, как черноморская пена, про что им говорят.
    Для тех, как колыбельная песня, у кого дома лежит огромная куча купленной литературы и словно майская роза, учебников, есть не что иное, но не приносит никакой пользы, словно облаком суровым, а являются немым укором в собственной лени и в большинстве случаев, напоминанием о том, едва заметно, сколько незаработанных денег каждый день проплывают мимо вас.
    Продолжительность: 18: 15: 59
    Качество видео: CamRip
    Видео: WMV3, в большинстве случаев, 636х356-640х360, обычно, ~603 Kbps
    Аудио: WMA, как принято, 2 ch, хлещет как из ведра, 96 Kbps, словно птица, CBR
    Код:

    General
    Complete name : C:TorrentsГраусова Яна - Английский за 2 недели (2013)Уроки1 урокVideo_2014-05-13_120830.wmv
    Format : Windows Media
    File size : 90.9 MiB
    Duration : 43mn 4s
    Overall bit rate mode : Variable
    Overall bit rate : 295 Kbps
    Maximum Overall bit rate : 1 056 Kbps
    Encoded date : UTC 2014-05-13 07:25:26.234
    Video
    ID : 2
    Format : VC-1
    Format profile : MP@ML
    Codec ID : WMV3
    Codec ID/Info : Windows Media Video 9
    Codec ID/Hint : WMV3
    Description of the codec : Windows Media Video 9
    Duration : 43mn 4s
    Bit rate mode : Variable
    Bit rate : 603 Kbps
    Width : 640 pixels
    Height : 360 pixels
    Display aspect ratio : 16:9
    Frame rate : 25.000 fps
    Color space : YUV
    Chroma subsampling : 4:2:0
    Bit depth : 8 bits
    Scan type : Progressive
    Compression mode : Lossy
    Bits/(Pixel*Frame) : 0.105
    Stream size : 186 MiB
    Language : English (US)
    Audio
    ID : 1
    Format : WMA
    Format version : Version 2
    Codec ID : 161
    Codec ID/Info : Windows Media Audio
    Description of the codec : Windows Media Audio 9.2 - 96 kbps, как обычно, 44 kHz, вертится как белка в колесе, stereo 1-pass CBR
    Duration : 43mn 4s
    Bit rate mode : Constant
    Bit rate : 96.0 Kbps
    Channel(s) : 2 channels
    Sampling rate : 44.1 KHz
    Bit depth : 16 bits
    Stream size : 29.6 MiB (33%)
    Language : English (US)


    Скриншоты для ознакомления




    Яна Граусова | Английский за 2 недели (2013) CamRip
    загрузка...
    Рейтинг →
     (голосов: 1, оценка 5/5, голосовать можно 1 раз )

    Другие торренты по теме:

  • Яна Граусова | Английский за 2 недели (2013) [MP3, MP4, PDF] скачать через торрент бесплатно
  • Яна Граусова | Английский за 2 недели (2013) WEB-DL скачать через торрент бесплатно


    • Комментарии (0):

      Информация

      Информация

        Посетители, находящиеся в группе Гости, не могут оставлять комментарии в данной новости.

        ↓ Меню




        ↓ Опрос

        Вы добавили сайт в закладки?
        Да
        Нет


        Top 10 за месяц (Книги)