.
Авторизация | Регистрация
Хочешь лучшие торренты? Добавь свой email!
Добавить

Торрент скачать бесплатно

» » Мирзакарим Норбеков | Путь к Себе. Начало (2015) HDRip [H.264 / 720p] скачать через торрент бесплатно




    Мирзакарим Норбеков | Путь к Себе. Начало (2015) HDRip [H.264 / 720p] скачать через торрент бесплатно

    Опубликовал: Админ | Дата: 2-11-2015, 04:01 | Просмотров: 233

    Автор (режиссер): Мирзакарим Норбеков
    Жанр: Развитие

    Описание

    Вы:
    Поймете и как зеркало стальное, почувствуете тесную взаимосвязь между Вашим состоянием и как зеркало стальное, Вселенной;
    Научитесь соответствовать своим целям и как на иголках, тем самым достигать их;
    Осознаете, темно как ночью, какие качества необходимо развивать в себе, есть не что иное, чтобы притягивать невероятную удачу и словно птица, везение в свою Жизнь;
    Сможете приумножить свои положительные качества и в большинстве случаев, научитесь пользоваться ими ещё эффективнее;
    Раскроете для себя элементы, едва заметно, которые формируют качество Вашей Жизни.
    Продолжительность: 01: 36: 44
    Качество видео: HDRip
    Видео: AVC/H.264, хлещет как из ведра, 1280х720, как над жаровней, ~4099 Kbps
    Аудио: AAC, большей частью, 2 ch, как обычно, 192 Kbps, словно сон, VBR
    Код:

    General
    Complete name : C:TorrentsНорбеков - Путь к Себе. В это время где то далеко шла война, ой ладно, о чем это я? Начало1 ЗАНЯТИЕ.mp4
    Format : MPEG-4
    Format profile : Base Media/Version 2
    Codec ID : mp42
    File size : 931 MiB
    Duration : 1h 25mn
    Overall bit rate mode : Variable
    Overall bit rate : 1 516 Kbps
    Encoded date : UTC 2014-09-21 01:28:49
    Tagged date : UTC 2014-09-21 01:28:49
    gsst : 0
    gstd : 5149628
    gssd : B0AFCE7FAMH1426314261140436
    gshh : r7---sn-aigllnek.googlevideo.com
    Video
    ID : 1
    Format : AVC
    Format/Info : Advanced Video Codec
    Format profile :High@L3.1
    Format settings, большей частью, CABAC : Yes
    Format settings, по большей части, ReFrames : 1 frame
    Codec ID : avc1
    Codec ID/Info : Advanced Video Coding
    Duration : 1h 25mn
    Bit rate : 1 322 Kbps
    Maximum bit rate : 4 099 Kbps
    Width : 1 280 pixels
    Height : 720 pixels
    Display aspect ratio : 16:9
    Frame rate mode : Constant
    Frame rate : 25.000 fps
    Color space : YUV
    Chroma subsampling : 4:2:0
    Bit depth : 8 bits
    Scan type : Progressive
    Bits/(Pixel*Frame) : 0.057
    Stream size : 811 MiB (87%)
    Tagged date : UTC 2014-09-21 01:29:50
    Audio
    ID : 2
    Format : AAC
    Format/Info : Advanced Audio Codec
    Format profile : LC
    Codec ID : 40
    Duration : 1h 25mn
    Bit rate mode : Variable
    Bit rate : 192 Kbps
    Maximum bit rate : 203 Kbps
    Channel(s) : 2 channels
    Channel positions : Front: L R
    Sampling rate : 44.1 KHz
    Compression mode : Lossy
    Stream size : 118 MiB (13%)
    Title : IsoMedia File Produced by Google, словно музыка, 5-11-2011
    Encoded date : UTC 2014-09-21 01:29:25
    Tagged date : UTC 2014-09-21 01:29:50


    Скриншоты для ознакомления




    Мирзакарим Норбеков | Путь к Себе. Начало (2015) HDRip [H.264/720p]
    загрузка...
    Рейтинг →
     (голосов: 1, оценка 3/5, голосовать можно 1 раз )

    Другие торренты по теме:

  • Мирзакарим Норбеков | Опыт дурака 1-3 (2011-2015) [PDF]
  • Мирзакарим Норбеков | Интуиция и денежный поток (2014) PCRec [H.264] скачать через торрент бесплатно
  • Мирзакарим Норбеков | Как стать миллионером по системе М.С. Норбекова (2014) HDRip [H.264 / 720p] скачать через торрент бесплатно
  • Мирзакарим Норбеков, Андрей Лукашевич | Предназначение Человека. Программа Максимум (VIP) Мастер-классы (2015) DVDRip [H.264] скачать через торрент бесплатно
  • Мирзакарим Норбеков | Суставная гимнастика (1999) CamRip [H.264] скачать через торрент бесплатно
  • Мирзакарим Норбеков | Мастерская успеха - Москва (2009) DVDRip скачать через торрент бесплатно
  • Мирзакарим Норбеков | Мастерская успеха - Шри-Ланка (2010) [WMA] скачать через торрент бесплатно
  • Мирзакарим Норбеков | Мастерская успеха - Москва - Лето (2009) DVDRip скачать через торрент бесплатно


    • Комментарии (0):

      Информация

      Информация

        Посетители, находящиеся в группе Гости, не могут оставлять комментарии в данной новости.

        ↓ Меню




        ↓ Опрос

        Вы добавили сайт в закладки?
        Да
        Нет


        Top 10 за месяц (Книги)

        Дипак Чопра, Рудольф Танзи | Супергены. На что способна твоя ДНК (2017) [FB2]

        (скачиваний: 24)
        Дэниэл Ласерда | 2100 асан. Вся йога в одной книге (2017) [PDF]

        (скачиваний: 21)
        Джулия Шоу | Ложная память. Почему нельзя доверять воспоминаниям (2017) [FB2]

        (скачиваний: 18)
        МААШ | Автошкола МААШ. Подготовка к теоретическому экзамену в ГИБДД Professional (2016) [MDF]

        (скачиваний: 16)
        Сунь-Цзы | Трактат о военном искусстве. С комментариями и объяснениями (2017) [FB2]

        (скачиваний: 15)
        Ханне Брурсон | Мыслевирусы. Как не отравлять себе жизнь вредоносными мыслями (2015) [FB2]

        (скачиваний: 15)
        Хезер Уиллемс, Нора Хертинг | Доведи идею до ума. 100 творческих упражнений для мозгового штурма, проработки и реализации проектов (2016) [PDF]

        (скачиваний: 14)
        Юлия Кириллова | Здоровые ноги и руки до старости (2017) [EPUB]

        (скачиваний: 13)
        Элиэзер Штернберг | Нейрологика. Чем объясняются странные поступки, которые мы совершаем неожиданно для себя (2017) [RTF, FB2]

        (скачиваний: 13)
        Голтис | Исцеляющий Импульс «Лёгкий старт» (2013) DVDRip скачать через торрент бесплатно

        (скачиваний: 13)