.
Авторизация | Регистрация
Хочешь лучшие торренты? Добавь свой email!
Добавить

Торрент скачать бесплатно

» » Валерий Филипченко | Практический видеомонтаж в Premiere Pro CC (2015) PCRec [H.264 / 720p] скачать через торрент бесплатно




    Валерий Филипченко | Практический видеомонтаж в Premiere Pro CC (2015) PCRec [H.264 / 720p] скачать через торрент бесплатно

    Опубликовал: Админ | Дата: 30-10-2015, 12:48 | Просмотров: 366

    Автор (режиссер): Валерий Филипченко
    Жанр: Видеокурс

    Описание

    Вам просто нравится монтировать? И вы считаете, что глубокое знание программы вам ни к чему? С трудом выкраивая минутку на любимое занятие, вам не придется тратить драгоценное время на поиски в интернете ответов на вопрос как это сделать и отсеивание крошек нужной информации от кучи хлама.
    С этим курсом у вас будут ответы на все вопросы. И время вы можете полностью уделять любимому занятию и реализации задуманного. Не тратьте время на поиски — получите удовольствие от результата. Этот курс станет вашей настольной книгой. И если у Вас возникнут трудности, то достаточно заглянуть в курс.
    С Adobe Premiere Pro Вы создаете профессиональные видео: делаете цветокоррекцию, создаете эффекты, работаете со звуком, профессиональный вывод фильмов в различные форматы. Программа Premiere Pro — мощная программа видеомонтажа. Она отвечает всем требованиям, предъявляемым к профессиональным программам. Premiere Pro интегрируется с другими программами фирмы Adobe. Что делает PremierePro уникальным и удобным инструментом монтажа, обработки и цветокоррекции видео.
    Продолжительность: 08: 49: 19
    Качество видео: PCRec
    Видео: AVC, 1280x720, ~234 Kbps
    Аудио: AAC, 126 Kbps (VBR), 48.0 KHz
    Код:

    Общее
    Полное имя : D:\Практический видеомонтаж в Premiere Pro CC1. Базовые1_1.mp4
    Формат : MPEG-4
    Профиль формата : Base Media/Version 2
    Идентификатор кодека : mp42
    Размер файла : 115 Мбайт
    Продолжительность : 44 м.
    Режим общего битрейта : Переменный
    Общий поток : 363 Кбит/сек
    Дата кодирования : UTC 2015-10-01 08:48:04
    Дата пометки : UTC 2015-10-01 08:48:04
    Видео
    Идентификатор : 1
    Формат : AVC
    Формат/Информация : Advanced Video Codec
    Профиль формата :Main@L3.1
    Параметр CABAC формата : Да
    Параметр ReFrames формата : 3 кадра
    Идентификатор кодека : avc1
    Идентификатор кодека/Информация : Advanced Video Coding
    Продолжительность : 44 м.
    Битрейт : 234 Кбит/сек
    Ширина : 1280 пикселей
    Высота : 720 пикселей
    Соотношение сторон : 16:9
    Режим частоты кадров : Постоянный
    Частота кадров : 30, 000 кадров/сек
    Стандарт вещания : NTSC
    Цветовое пространство : YUV
    Субдискретизация насыщенности : 4:2:0
    Битовая глубина : 8 бит
    Тип развёртки : Прогрессивная
    Бит/(Пиксели*Кадры) : 0.008
    Размер потока : 74, 6 Мбайт (65%)
    Язык : English
    Дата кодирования : UTC 2015-10-01 08:48:05
    Дата пометки : UTC 2015-10-01 08:48:05
    Цветовой диапазон : Limited
    Аудио
    Идентификатор : 2
    Формат : AAC
    Формат/Информация : Advanced Audio Codec
    Профиль формата : LC
    Идентификатор кодека : 40
    Продолжительность : 44 м.
    Продолжительность оригинала : 44 м.
    Вид битрейта : Переменный
    Битрейт : 126 Кбит/сек
    Максимальный битрейт : 460 Кбит/сек
    Каналы : 2 канала
    Расположение каналов : Front: L R
    Частота : 44, 1 КГц
    Метод сжатия : С потерями
    Размер потока : 40, 0 Мбайт (35%)
    Размер потока оригинала : 40, 0 Мбайт (35%)
    Язык : English
    Дата кодирования : UTC 2015-10-01 08:48:05
    Дата пометки : UTC 2015-10-01 08:48:05


    Скриншоты для ознакомления




    Валерий Филипченко | Практический видеомонтаж в Premiere Pro CC (2015) PCRec [H.264/720p]
    загрузка...
    Рейтинг →
     (голосов: 1, оценка 4/5, голосовать можно 1 раз )

    Другие торренты по теме:

  • Валерий Филипченко | Осмысленный видеомонтаж (2015) PCRec


    • Комментарии (0):

      Информация

      Информация

        Посетители, находящиеся в группе Гости, не могут оставлять комментарии в данной новости.

        ↓ Меню




        ↓ Опрос

        Вы добавили сайт в закладки?
        Да
        Нет


        Top 10 за месяц (Книги)

        Андрей Сазонов | Мифы о нашем теле. Научный подход к примитивным вопросам (2017) [FB2]

        (скачиваний: 31)
        Элла Берту, Сьюзен Элдеркин | Книга как лекарство. Скорая литературная помощь от А до Я (2016) [FB2, EPUB]

        (скачиваний: 28)
        Оуэйн Сервис, Рори Галлахер | Начинай с малого. Научно доказанная система достижения больших целей (2018) [PDF, FB2, EPUB]

        (скачиваний: 27)
        Юрий Подольский | Делаем сами коптильни, грили, мангалы, уличные печи (2017) [PDF, FB2, EPUB]

        (скачиваний: 24)
        Григорий-Азиз | Фишки Ворда и Экселя [Word and Excel] (2017) PCRec [H.264]

        (скачиваний: 23)
        Дмитрий Петров, Алексей Кржижевский | Серия: Полиглот. Выучим иностранный язык за 16 часов [5 книг] (2014-2015) [PDF, DJVU]

        (скачиваний: 23)
        Юрий Морозов | Ремонт дачного дома своими руками. Полное руководство (2017) [PDF]

        (скачиваний: 21)
        Наталья Корикова | Полезные и вкусные бутерброды. Алгоритм приготовления и рецепты (2017) [PDF]

        (скачиваний: 21)
        Кевин Келли | Неизбежно. 12 технологических трендов, которые определяют наше будущее (2017) [PDF, EPUB, MOBI]

        (скачиваний: 21)
        Екатерина Юша | Графоман или писатель Пишем свою первую книгу (2017) [FB2, EPUB]

        (скачиваний: 20)