.
Авторизация | Регистрация
Хочешь лучшие торренты? Добавь свой email!
Добавить

Торрент скачать бесплатно

» » Данил Фимушкин | Adobe Muse CC, Edge Animate: Великолепные сайты без программирования (2014) PCRec [H.264] скачать через торрент бесплатно




    Данил Фимушкин | Adobe Muse CC, Edge Animate: Великолепные сайты без программирования (2014) PCRec [H.264] скачать через торрент бесплатно

    Опубликовал: Админ | Дата: 26-10-2015, 04:01 | Просмотров: 565

    Автор (режиссер): Данил Фимушкин
    Производство: Россия
    Жанр: Web-дизайн, обучение

    Описание

    Курс от Данила Фимушкина. После прохождения этого курса вы создадите свой сайт или landing page и опубликуете его в Интернете. Это будет адаптивный сайт с красивым дизайном и встроенной анимацией! Акцент будет сделан именно на дизайн, потому что в программе Adobe Muse CC не нужно уметь программировать. Курс рассчитан на людей от 13 до 105 лет и не требует от вас специальной подготовки.
    -
    Внимание:
    Курс проходил в виде Online конференции, где каждый обучающийся мог общаться с преподавателем в реальном времени, задавать вопросы и получать сразу ответы. Курс не выходил как Offline. В раздаче, собственно, рип этих конференций, исключение — 5 модулей по Adobe Edge Animate, которые представлены в виде Offline видеоуроков.
    -
    Примечание:
    Рип видеоконференций делал не я, поэтому формат видеокодеков тут несколько разный, для аудио используется либо wav, либо mp4a; для видео используется H264, TechSmith Camtasia Screen Capture (tscc) (Занятие №3). Упаковано все в контейнер mp4 (кроме занятия 3 — avi). Разрешение: 1280x720, но, опять же, у некоторых чуть меньше. В модулях по Edge Animate: video: 1364x768, H264, audio: mp4a, контейнер: mp4.
    Продолжительность: 00: 31: 30
    Качество видео: PCRec
    Видео: AVC/H.264, 1364x768, ~30fps 407kbps
    Аудио: AAC, 2 ch, 30fps 407kbps, VBR
    Код:

    D:Admintorrenttorrent filesФимушкин Д. Adobe Muse CC Edge Animate Великолепные сайты без программирования (2014)kurskurs1 Занятие5_modul_video5modul-full.mp4
    General
    Complete name : D:Admintorrenttorrent filesФимушкин Д. Adobe Muse CC Edge Animate Великолепные сайты без программирования (2014)kurskurs1 Занятие5_modul_video5modul-full.mp4
    Format : MPEG-4
    Format profile : Base Media/Version 2
    Codec ID : mp42
    File size : 95.4 MiB
    Duration : 31mn 30s
    Overall bit rate : 423 Kbps
    Movie name : 5modul-full
    Encoded date : UTC 2014-01-28 14:53:34
    Tagged date : UTC 2014-01-28 14:53:34
    Video #1
    ID : 1
    Format : AVC
    Format/Info : Advanced Video Codec
    Format profile :Baseline@L3.2
    Format settings, CABAC : No
    Format settings, ReFrames : 3 frames
    Codec ID : avc1
    Codec ID/Info : Advanced Video Coding
    Duration : 31mn 30s
    Bit rate mode : Variable
    Bit rate : 295 Kbps
    Width : 1 364 pixels
    Height : 768 pixels
    Display aspect ratio : 16:9
    Frame rate mode : Variable
    Frame rate : 30.000 fps
    Minimum frame rate : 30.000 fps
    Maximum frame rate : 30.030 fps
    Standard : NTSC
    Resolution : 8 bits
    Colorimetry : 4:2:0
    Scan type : Progressive
    Bits/(Pixel*Frame) : 0.009
    Stream size : 66.4 MiB (70%)
    Language : English
    Encoded date : UTC 2014-01-28 14:53:34
    Tagged date : UTC 2014-01-28 14:53:34
    Audio #2
    ID : 2
    Format : AAC
    Format/Info : Advanced Audio Codec
    Format version : Version 4
    Format profile : LC
    Format settings, SBR : No
    Codec ID : 40
    Duration : 31mn 30s
    Bit rate mode : Variable
    Bit rate : 126 Kbps
    Maximum bit rate : 246 Kbps
    Channel(s) : 2 channels
    Channel positions : Front: L R
    Sampling rate : 44.1 KHz
    Stream size : 28.3 MiB (30%)
    Language : English
    Encoded date : UTC 2014-01-28 14:53:34
    Tagged date : UTC 2014-01-28 14:53:34


    Скриншоты для ознакомления




    Данил Фимушкин | Adobe Muse CC, Edge Animate: Великолепные сайты без программирования (2014) PCRec [H.264]
    загрузка...
    Рейтинг →
     (голосов: 1, оценка 4/5, голосовать можно 1 раз )

    Другие торренты по теме:

  • Данил Фимушкин | Создание убойной анимации в Adobe Edge Animate CC (2014) PCRec [H.264] скачать через торрент бесплатно


    • Комментарии (0):

      Информация

      Информация

        Посетители, находящиеся в группе Гости, не могут оставлять комментарии в данной новости.

        ↓ Меню




        ↓ Опрос

        Вы добавили сайт в закладки?
        Да
        Нет


        Top 10 за месяц (Книги)

        Джиллиан Майклз | Знаменитая программа Джиллиан Майклз: Стройное и здоровое тело за 30 дней (2016) [FB2]

        (скачиваний: 63)
        И.Б. Фефилова | Антивозрастная медицина. Современная энциклопедия (2015) [PDF, EPUB]

        (скачиваний: 31)
        Михаил Диденко | Русский стиль выживания. Как остаться в живых одному в лесу (2017) [PDF, FB2]

        (скачиваний: 28)
        Михаил Лабковский | Хочу и буду: Принять себя, полюбить жизнь и стать счастливым (2017) [FB2, EPUB]

        (скачиваний: 27)
        Александр Клинге | Ленин. Самая правдивая биография Ильича (2017) [FB2, EPUB]

        (скачиваний: 23)
        Евгений Старухин | Цикл «Лесовик» [4 книги. Обновляемая] (2015-2017) [FB2]

        (скачиваний: 23)
        Джек Дэниелс | От 800 метров до марафона (2014) [FB2]

        (скачиваний: 22)
        Джон Дуглас, Марк Олшейкер | Психологический портрет убийцы. Методики ФБР (2016) [FB2, EPUB]

        (скачиваний: 22)
        Давид Дубницкий | Жанровый НЮ-портрет (2016) PCRec

        (скачиваний: 21)
        Дэвид Агус | Завтра начинается сегодня. Как воспользоваться достижениями anti-age медицины (2017) [FB2, EPUB]

        (скачиваний: 20)