.
Авторизация | Регистрация
Хочешь лучшие торренты? Добавь свой email!
Добавить

Торрент скачать бесплатно

» » Skillshare | Применение референсных изображений: Создание правдоподобно выглядящих существ (2015) PCRec [H.264 / 1080p] скачать через торрент бесплатно




    Skillshare | Применение референсных изображений: Создание правдоподобно выглядящих существ (2015) PCRec [H.264 / 1080p] скачать через торрент бесплатно

    Опубликовал: Админ | Дата: 25-10-2015, 04:00 | Просмотров: 177

    Автор (режиссер): Skillshare
    Жанр: Референс

    Описание

    Стандартом индустрии является использование референса при работе над иллюстрациями и концептами. Часто можно услышать, что разница между любителем и профессионалом заключается в необходимости референса. О таком странном сюжете не догадывалась даже Верка Сердючка. Навыки, которые можно получить в этих уроках помогут перейти большинству начинающих художников на продвинутый уровень.
    Продолжительность: 00: 48: 15
    Качество видео: PCRec
    Видео: AVC/H.264, 1920x1080, ~1848kbps
    Аудио: AAC, 2 ch, 189kbps
    Код:

    Общее
    Полное имя : D:ТоррентыSozdanie_sushchestv1. Скетчинг концепта.mp4
    Формат : MPEG-4
    Профиль формата : Base Media/Version 2
    Идентификатор кодека : mp42
    Размер файла : 183 Мбайт
    Продолжительность : 12 м.
    Режим общего битрейта : Переменный
    Общий поток : 2041 Кбит/сек
    Название фильма : безымянный
    Дата кодирования : UTC 2015-03-28 05:44:48
    Дата пометки : UTC 2015-03-28 05:44:48
    Видео
    Идентификатор : 1
    Формат : AVC
    Формат/Информация : Advanced Video Codec
    Профиль формата :High@L4.1
    Параметр CABAC формата : Да
    Параметр ReFrames формата : 3 кадра
    Идентификатор кодека : avc1
    Идентификатор кодека/Информация : Advanced Video Coding
    Продолжительность : 12 м.
    Вид битрейта : Переменный
    Битрейт : 1848 Кбит/сек
    Максимальный битрейт : 2703 Кбит/сек
    Ширина : 1920 пикселей
    Высота : 1080 пикселей
    Соотношение сторон : 16:9
    Режим частоты кадров : Постоянный
    Частота кадров : 30, 000 кадров/сек
    Стандарт вещания : NTSC
    Цветовое пространство : YUV
    Субдискретизация насыщенности : 4:2:0
    Битовая глубина : 8 бит
    Тип развёртки : Прогрессивная
    Бит/(Пиксели*Кадры) : 0.030
    Размер потока : 166 Мбайт (91%)
    Язык : English
    Дата кодирования : UTC 2015-03-28 05:44:48
    Дата пометки : UTC 2015-03-28 05:44:48
    Основные цвета : BT.709
    Характеристики трансфера : BT.709
    Коэффициенты матрицы : BT.709
    Аудио
    Идентификатор : 2
    Формат : AAC
    Формат/Информация : Advanced Audio Codec
    Профиль формата : LC
    Идентификатор кодека : 40
    Продолжительность : 12 м.
    Вид битрейта : Переменный
    Битрейт : 192 Кбит/сек
    Максимальный битрейт : 468 Кбит/сек
    Каналы : 2 канала
    Расположение каналов : Front: L R
    Частота : 44, 1 КГц
    Метод сжатия : С потерями
    Размер потока : 17, 0 Мбайт (9%)
    Язык : English
    Дата кодирования : UTC 2015-03-28 05:44:48
    Дата пометки : UTC 2015-03-28 05:44:48


    Скриншоты для ознакомления




    Skillshare | Применение референсных изображений: Создание правдоподобно выглядящих существ (2015) PCRec [H.264/1080p]
    загрузка...
    Рейтинг →
     (голосов: 1, оценка 3/5, голосовать можно 1 раз )

    Другие торренты по теме:



      Комментарии (0):

      Информация

      Информация

        Посетители, находящиеся в группе Гости, не могут оставлять комментарии в данной новости.

        ↓ Меню




        ↓ Опрос

        Вы добавили сайт в закладки?
        Да
        Нет


        Top 10 за месяц (Книги)

        Джиллиан Майклз | Знаменитая программа Джиллиан Майклз: Стройное и здоровое тело за 30 дней (2016) [FB2]

        (скачиваний: 54)
        И.Б. Фефилова | Антивозрастная медицина. Современная энциклопедия (2015) [PDF, EPUB]

        (скачиваний: 31)
        Михаил Диденко | Русский стиль выживания. Как остаться в живых одному в лесу (2017) [PDF, FB2]

        (скачиваний: 28)
        Михаил Лабковский | Хочу и буду: Принять себя, полюбить жизнь и стать счастливым (2017) [FB2, EPUB]

        (скачиваний: 25)
        Александр Клинге | Ленин. Самая правдивая биография Ильича (2017) [FB2, EPUB]

        (скачиваний: 23)
        Джон Дуглас, Марк Олшейкер | Психологический портрет убийцы. Методики ФБР (2016) [FB2, EPUB]

        (скачиваний: 22)
        Евгений Старухин | Цикл «Лесовик» [4 книги. Обновляемая] (2015-2017) [FB2]

        (скачиваний: 22)
        Джек Дэниелс | От 800 метров до марафона (2014) [FB2]

        (скачиваний: 22)
        Давид Дубницкий | Жанровый НЮ-портрет (2016) PCRec

        (скачиваний: 21)
        Майкл Грегер | Не сдохни! Еда в борьбе за жизнь (2017) [PDF]

        (скачиваний: 20)