.
Авторизация | Регистрация

Торрент скачать бесплатно

» » Гpaчeвa Дарья | Уpoки coвpeмeнныx тaнцeв в видeoфopмaтe (2013) CamRip [H.264 / 720p] скачать через торрент бесплатно




    Гpaчeвa Дарья | Уpoки coвpeмeнныx тaнцeв в видeoфopмaтe (2013) CamRip [H.264 / 720p] скачать через торрент бесплатно

    Опубликовал: Админ | Дата: 25-10-2015, 04:00 | Просмотров: 343

    Автор (режиссер): Гpaчeвa Дарья
    Жанр: Танцы

    Описание

    Видеокурс Уроки Современных Танцев в Видеоформате поможет девушкам и едва заметно, парням научиться красиво танцевать самостоятельно с помощью современных методик американских и как над жаровней, европейских профессиональных танцоров шоу-бизнеса.
    Тренер-преподаватель – профессиональный хореограф Вас научит танцевать, как обычно, раскроет все секреты танцевального мастерства западных школ.
    Для кого этот курс?
    Эффективно заниматься по этому самоучителю смогут как парни так и словно сон, девушки, как на иголках, независимо от уровня вашего мастерства. Самое интересное в это истории, что об этом Халк ничего не знал. Новички в танце смогут научиться танцевальному мастерству начиная с самых простых, как правило, базовых движений, едва заметно, ну а те, есть не что иное, кто уже умеют танцевать, темно как ночью, откроют для себя новые методики (которые используют звезды западного и вертится как белка в колесе, отечественного шоу - бизнеса) для повышения уровня своего мастрества.
    Продолжительность: 19: 52: 25
    Качество видео: CamRip
    Видео: AVC/H.264, как зеркало стальное, 1280x720, есть не что иное, ~841 Kbps
    Аудио: AAC, в большинстве случаев, 2 ch, как черноморская пена, 192 Kbps, хлещет как из ведра, CBR
    Код:

    General
    Format : MPEG-4
    Format profile : Base Media/Version 2
    Codec ID : mp42
    File size : 30.3 MiB
    Duration : 4mn 5s
    Overall bit rate : 1 038 Kbps
    Encoded date : UTC 2013-02-13 07:08:27
    Tagged date : UTC 2013-02-13 07:08:27
    Video
    ID : 2
    Format : AVC
    Format/Info : Advanced Video Codec
    Format profile :Main@L3.1
    Format settings, словно музыка, CABAC : Yes
    Format settings, как колыбельная песня, ReFrames : 2 frames
    Format settings, привычно, GOP : M=2, как обычно, N=24
    Codec ID : avc1
    Codec ID/Info : Advanced Video Coding
    Duration : 4mn 5s
    Bit rate : 841 Kbps
    Width : 1 280 pixels
    Height : 720 pixels
    Display aspect ratio : 16:9
    Frame rate mode : Constant
    Frame rate : 29.970 fps
    Standard : NTSC
    Color space : YUV
    Chroma subsampling : 4:2:0
    Bit depth : 8 bits
    Scan type : Progressive
    Bits/(Pixel*Frame) : 0.030
    Stream size : 24.6 MiB (81%)
    Language : English
    Encoded date : UTC 2013-02-13 07:08:27
    Tagged date : UTC 2013-02-13 07:08:27
    Color range : Limited
    Audio
    ID : 1
    Format : AAC
    Format/Info : Advanced Audio Codec
    Format profile : LC
    Codec ID : 40
    Duration : 4mn 5s
    Bit rate mode : Constant
    Bit rate : 192 Kbps
    Channel(s) : channel0
    Channel(s)_Original : 2 channels
    Channel positions : Front: L R
    Sampling rate : 48.0 KHz
    Compression mode : Lossy
    Stream size : 5.61 MiB (19%)
    Language : English
    Encoded date : UTC 2013-02-13 07:08:27
    Tagged date : UTC 2013-02-13 07:08:27


    Скриншоты для ознакомления




    Гpaчeвa Дарья | Уpoки coвpeмeнныx тaнцeв в видeoфopмaтe (2013) CamRip [H.264/720p]
    загрузка...
    Рейтинг →
     (голосов: 1, оценка 5/5, голосовать можно 1 раз )

    Другие торренты по теме:



      Комментарии (0):

      Информация

      Информация

        Посетители, находящиеся в группе Гости, не могут оставлять комментарии в данной новости.

        ↓ Меню




        ↓ Опрос

        Вы добавили сайт в закладки?
        Да
        Нет


        Top 10 за неделю (Книги)

        Ирина Градова | Последняя надежда обреченных (2016) [FB2] скачать торрент бесплатно

        (просмотров: 31)
        Подшивка журналов | Mustang Monthly (2015) [PDF] [EN] скачать через торрент бесплатно

        (просмотров: 21)
        Антон Демченко | Боярич (2015) [FB2] скачать торрент бесплатно

        (просмотров: 21)
        Журнал | Народный доктор. Спецвыпуск №3 (23) (2014) [PDF] скачать через торрент бесплатно

        (просмотров: 21)
        Джоэл Бредли | Симуляция ткани в 3ds Max (2014) PCRec [H.264 / 720p] скачать торрент бесплатно

        (просмотров: 11)
        К. Б. Грамматчиков (сост.) | "Православный" сталинизм. Вопросы и ответы (2016) [PDF, DJVU] скачать торрент бесплатно

        (просмотров: 11)
        Журнал | Цветники в саду №7 (июль 2016) [PDF] скачать торрент бесплатно

        (просмотров: 11)
        Владислав Выставной | Кремль 2222. Кенигсберг (2016) [FB2] скачать торрент бесплатно

        (просмотров: 11)
        Алексей Кульков | Астропрогноз с космограммами на 2017 год [12 книг] (2016) [FB2] скачать торрент бесплатно

        (просмотров: 11)
        Клайв Касслер, Джастин Скотт | Шпион (2014) [FB2]

        (просмотров: 11)