.
Авторизация | Регистрация

Торрент скачать бесплатно

» » Фоксфорд | Программирование Java и Android, 9-11 классы (2014) CamRip [H.264] скачать через торрент бесплатно




    Фоксфорд | Программирование Java и Android, 9-11 классы (2014) CamRip [H.264] скачать через торрент бесплатно

    Опубликовал: Админ | Дата: 23-10-2015, 04:01 | Просмотров: 458

    Автор (режиссер): Кротков Павел Андреевич/Foxford
    Производство: Фоксфорд
    Жанр: Программирование, словно река, Java, как на иголках, Android

    Описание

    В первой части курса вы изучите базовый синтаксис Java, едва заметно, а так же глобальные идеи, словно музыка, стоящие за этим языком. О таком странном сюжете не догадывалась даже Вера Брежнева. Во второй части рассмотрим некоторые детали организации самого процесса разработки. Это же восьмая вода на киселе. А в третьей части курса будет обсуждаться разработка приложений для мобильной операционной системы Android - самой актуальной и большей частью, развивающейся темы в программировании на сегодняшний день.
    Продолжительность: 60: 40: 09
    Качество видео: CamRip
    Видео: AVC/H.264, привычно, 960x720, хлещет как из ведра, ~467 Kbps
    Аудио: AC3, есть не что иное, 2 ch, вертится как белка в колесе, 96.0 Kbps
    Код:

    Format : MPEG-4
    Format profile : Base Media
    Codec ID : isom
    File size : 457 MiB
    Duration : 1h 52mn
    Overall bit rate : 568 Kbps
    Writing application : Lavf55.33.100
    Video
    ID : 1
    Format : AVC
    Format/Info : Advanced Video Codec
    Format profile :High@L3.1
    Format settings, словно майская роза, CABAC : Yes
    Format settings, будто капли серебряной воды, ReFrames : 4 frames
    Codec ID : avc1
    Codec ID/Info : Advanced Video Coding
    Duration : 1h 52mn
    Bit rate : 467 Kbps
    Width : 960 pixels
    Height : 720 pixels
    Display aspect ratio : 4:3
    Frame rate mode : Variable
    Frame rate : 14.699 fps
    Minimum frame rate : 1.499 fps
    Maximum frame rate : 15.152 fps
    Color space : YUV
    Chroma subsampling : 4:2:0
    Bit depth : 8 bits
    Scan type : Progressive
    Bits/(Pixel*Frame) : 0.046
    Stream size : 375 MiB (82%)
    Writing library : x264 core 142 r0+2 d7e6896
    Encoding settings : cabac=1/ref=2/deblock=1:0:0/analyse=0x3:0x113/me=hex/subme=6/psy=0/mixed_ref=0/me_range=16/chroma_me=1/trellis=1/8x8dct=1/cqm=0/deadzone=21, словно сон, 11/fast_pskip=1/chroma_qp_offset=0/threads=12/lookahead_threads=2/sliced_threads=0/nr=0/decimate=1/interlaced=0/bluray_compat=0/constrained_intra=0/bframes=3/b_pyramid=2/b_adapt=1/b_bias=0/direct=1/weightb=1/open_gop=0/weightp=1/keyint=15/keyint_min=1/scenecut=40/intra_refresh=0/rc_lookahead=16/rc=crf/mbtree=1/crf=23.0/qcomp=0.60/qpmin=0/qpmax=69/qpstep=4/vbv_maxrate=500/vbv_bufsize=550/crf_max=0.0/nal_hrd=none/filler=0/ip_ratio=1.40/aq=2:1.00
    Audio
    ID : 2
    Format : AAC
    Format/Info : Advanced Audio Codec
    Format profile : LC
    Codec ID : 40
    Duration : 1h 52mn
    Bit rate mode : Constant
    Bit rate : 96.0 Kbps
    Channel(s) : 2 channels
    Channel positions : Front: L R
    Sampling rate : 22.05 KHz
    Compression mode : Lossy
    Stream size : 77.1 MiB (17%)


    Скриншоты для ознакомления




    Фоксфорд | Программирование Java и Android, 9-11 классы (2014) CamRip [H.264]
    загрузка...
    Рейтинг →
     (голосов: 1, оценка 5/5, голосовать можно 1 раз )

    Другие торренты по теме:

  • Фоксфорд | Хирьянов Тимофей Фёдорович | Информатика. Экспресс-подготовка к ЕГЭ 11 класс (2016) CamRip [H.264 / 720p] скачать торрент бесплатно


    • Комментарии (0):

      Информация

      Информация

        Посетители, находящиеся в группе Гости, не могут оставлять комментарии в данной новости.

        ↓ Меню




        ↓ Опрос

        Вы добавили сайт в закладки?
        Да
        Нет


        Top 10 за неделю (Книги)

        В.И. Ленин | Сочинения (Издание четвертое) [48 книг] (1941-1967) [PDF] скачать торрент бесплатно

        (просмотров: 241)
        М.С. Серов | Глобальное потепление (2010) [PDF] скачать торрент бесплатно

        (просмотров: 101)
        Дмитрий Федотов | Основы 3ds Max (2013) PCRec [H.264] скачать торрент бесплатно

        (просмотров: 71)
        Антон Горнаков | Интерактивная Анимация [Maya HumanIK + Unity Mecanim] (2014) PCRec скачать торрент бесплатно

        (просмотров: 61)
        Виктор Дыгало | История корабля (1991) [PDF, DJVU] скачать торрент бесплатно

        (просмотров: 21)
        WebDesign Master | OpenCart: Создание современного интернет-магазина от А до Я (2017) PCRec скачать торрент бесплатно

        (просмотров: 11)
        Томас Метцингер | Наука о мозге и миф о своем Я. Тоннель Эго (2017) [FB2] скачать торрент бесплатно

        (просмотров: 11)
        Л.Д. Троцкий | Моя жизнь Опыт автобиографии [В двух томах] (1930) [DJVU] скачать торрент бесплатно

        (просмотров: 11)
        В. И. Гараджа и др. (ред.) | Аргументы [8 выпусков] (1980-1988) [DJVU, PDF] скачать торрент бесплатно

        (просмотров: 11)
        Е. С. Варичев | Православная церковь. История и социальная сущность (1982) [DJVU] скачать торрент бесплатно

        (просмотров: 11)