.
Авторизация | Регистрация
Хочешь лучшие торренты? Добавь свой email!
Добавить

Торрент скачать бесплатно

» » ITVDN | Сборник бесплатных вебинаров (2014 - 2015) PCRec [H.264 / 720p] скачать через торрент бесплатно




    ITVDN | Сборник бесплатных вебинаров (2014 - 2015) PCRec [H.264 / 720p] скачать через торрент бесплатно

    Опубликовал: Админ | Дата: 23-10-2015, 04:01 | Просмотров: 243

    Автор (режиссер): ITVDN
    Жанр: Программирование

    Описание

    Сборник бесплатных вебинаров с официального канала ITVDN на ютубе. В это время ветер тихо покачивал деревья. Судя по количеству просмотров мало кто о них знает, большей частью, но тем не менее очень много полезной информации можно узнать из бесплатных видеоматериалов.
    Продолжительность: 52: 51: 03
    Качество видео: PCRec
    Видео: AVC/H.264, в большинстве случаев, 1280x720, как над жаровней, ~170 Kbps
    Аудио: AAC, темно как ночью, 2 ch, по большей части, 129 Kbps
    Код:

    Format : MPEG-4
    Format profile : Base Media
    Codec ID : isom
    File size : 123 MiB
    Duration : 57mn 0s
    Overall bit rate : 303 Kbps
    Writing application : Lavf55.49.100
    Video
    ID : 1
    Format : AVC
    Format/Info : Advanced Video Codec
    Format profile :Main@L3.1
    Format settings, как зеркало стальное, CABAC : Yes
    Format settings, как правило, ReFrames : 3 frames
    Codec ID : avc1
    Codec ID/Info : Advanced Video Coding
    Duration : 57mn 0s
    Bit rate : 170 Kbps
    Width : 1 280 pixels
    Height : 720 pixels
    Display aspect ratio : 16:9
    Frame rate mode : Constant
    Frame rate : 15.000 fps
    Color space : YUV
    Chroma subsampling : 4:2:0
    Bit depth : 8 bits
    Scan type : Progressive
    Bits/(Pixel*Frame) : 0.012
    Stream size : 69.4 MiB (56%)
    Audio
    ID : 2
    Format : AAC
    Format/Info : Advanced Audio Codec
    Format profile : LC
    Codec ID : 40
    Duration : 57mn 0s
    Bit rate mode : Constant
    Bit rate : 129 Kbps
    Channel(s) : 2 channels
    Channel positions : Front: L R
    Sampling rate : 44.1 KHz
    Compression mode : Lossy
    Stream size : 52.5 MiB (43%)


    Скриншоты для ознакомления




    ITVDN | Сборник бесплатных вебинаров (2014 - 2015) PCRec [H.264/720p]
    загрузка...
    Рейтинг →
     (голосов: 1, оценка 4/5, голосовать можно 1 раз )

    Другие торренты по теме:

  • ITVDN & CBS | XML (2014) PCRec скачать через торрент бесплатно
  • ITVDN | Основы тестирования ПО (2014) PCRec [H.264 / 720p-LQ] скачать через торрент бесплатно
  • ITVDN | Элементы математической логики (2015) PCRec скачать через торрент бесплатно
  • ITVDN | Entity Framework 6 (2015) PCRec [H.264 / 720p-LQ] скачать через торрент бесплатно
  • ITVDN | Алгоритмы и структуры данных (2015) PCRec [H.264 / 720p] скачать через торрент бесплатно
  • ITVDN | C# для профессионалов - Обновленный (2015) PCRec [H.264 / 720p] скачать через торрент бесплатно
  • ITVDN | Видео курс Unity3D Starter 2015 | PCRec [H.264]
  • ITVDN | Видео курс Python Starter (2016) PCRec [H.264]


    • Комментарии (0):

      Информация

      Информация

        Посетители, находящиеся в группе Гости, не могут оставлять комментарии в данной новости.

        ↓ Меню




        ↓ Опрос

        Вы добавили сайт в закладки?
        Да
        Нет


        Top 10 за месяц (Книги)

        Екатерина Додонова | 100% память. 25 полезных методов запоминания за 10 тренировок (2017) [FB2]

        (скачиваний: 31)
        Денис Борисов | Программа МЕЧТА 104% (2017) [PDF]

        (скачиваний: 27)
        Н. Татаренко (переводчик) | Анатомия стретчинга. Большая иллюстрированная энциклопедия (2017) [PDF]

        (скачиваний: 24)
        Джеймс Хаббард | Первая помощь своими руками. Если скорая не спешит (2017) [FB2]

        (скачиваний: 23)
        Андрей Ермошин | Фобии, утраты, разочарования. Как исцелиться от психологических травм (2015) [PDF]

        (скачиваний: 23)
        Сьюзан Дэвид | Эмоциональная гибкость. Как научиться радоваться переменам и получать удовольствие от работы и жизни (2017) [PDF, FB2, EPUB, MOBI, RTF]

        (скачиваний: 22)
        Александр Конторович | Беглец (2017) [FB2]

        (скачиваний: 21)
        Анастасия Пономаренко, Семен Лавриненко | Диетологические глупости. Низвержение мифов (2017) [RTF, FB2]

        (скачиваний: 20)
        Журнал | Наука и жизнь №6 (июнь 2017) [PDF]

        (скачиваний: 19)
        Дэвид Рок | Мозг. Инструкция по применению. Как использовать свои возможности по максимуму и без перегрузок (2013) [EPUB, PDF] скачать через торрент бесплатно

        (скачиваний: 19)