.
Авторизация | Регистрация
Хочешь лучшие торренты? Добавь свой email!
Добавить

Торрент скачать бесплатно

» » Гавриил и Татьяна Ждановы | Здравый хлеб (2013) CamRip скачать через торрент бесплатно




    Гавриил и Татьяна Ждановы | Здравый хлеб (2013) CamRip скачать через торрент бесплатно

    Опубликовал: Админ | Дата: 23-10-2015, 04:01 | Просмотров: 124

    Автор (режиссер): Гавриил и Татьяна Ждановы
    Жанр: Кулинария, хлеб

    Описание

    Шаг за шагом мы научим Вас, Как самим выпекать у себя Дома бездрожжевые хлеба на заквасках!
    В данном курсе Гаврила и Татьяна Ждановы передают знания, наработанные ими за много лет. Благодаря этому вам не придётся заниматься поиском необходимых ответов на возникающие вопросы о домашнем хлебопечении, ведь все ответы находятся здесь – в одном видеокурсе!
    Продолжительность: 01: 59: 09
    Качество видео: CamRip
    Видео: DivX 5, 780x480, ~780 Kbps
    Аудио: MP3, 1 ch, 160 Kbps, CBR
    Код:

    General
    Format : AVI
    Format/Info : Audio Video Interleave
    File size : 119 MiB
    Duration : 17mn 30s
    Overall bit rate : 949 Kbps
    Video
    ID : 0
    Format : MPEG-4 Visual
    Format settings, BVOP : 1
    Format settings, QPel : No
    Format settings, GMC : No warppoints
    Format settings, Matrix : Default (H.263)
    Muxing mode : Packed bitstream
    Codec ID : DX50
    Codec ID/Hint : DivX 5
    Duration : 17mn 29s
    Bit rate : 780 Kbps
    Width : 640 pixels
    Height : 480 pixels
    Display aspect ratio : 4:3
    Frame rate : 30.000 fps
    Color space : YUV
    Chroma subsampling : 4:2:0
    Bit depth : 8 bits
    Scan type : Progressive
    Compression mode : Lossy
    Bits/(Pixel*Frame) : 0.085
    Stream size : 97.7 MiB (82%)
    Writing library : DivX 6.8.5 (UTC 2009-08-20)
    Audio
    ID : 1
    Format : MPEG Audio
    Format version : Version 2.5
    Format profile : Layer 3
    Codec ID : 55
    Codec ID/Hint : MP3
    Duration : 17mn 30s
    Bit rate mode : Constant
    Bit rate : 160 Kbps
    Channel(s) : 1 channel
    Sampling rate : 11.025 KHz
    Compression mode : Lossy
    Stream size : 20.0 MiB (17%)
    Alignment : Split accross interleaves
    Interleave, duration : 999 ms (29.97 video frames)
    Interleave, preload duratio : 750 ms


    Скриншоты для ознакомления




    Гавриил и Татьяна Ждановы | Здравый хлеб (2013) CamRip
    загрузка...
    Рейтинг →
     (голосов: 1, оценка 4/5, голосовать можно 1 раз )

    Другие торренты по теме:

  • Гавриил и Татьяна Ждановы | Здравый Квас (2013) CamRip скачать через торрент бесплатно


    • Комментарии (0):

      Информация

      Информация

        Посетители, находящиеся в группе Гости, не могут оставлять комментарии в данной новости.

        ↓ Меню




        ↓ Опрос

        Вы добавили сайт в закладки?
        Да
        Нет


        Top 10 за месяц (Книги)

        Джиллиан Майклз | Знаменитая программа Джиллиан Майклз: Стройное и здоровое тело за 30 дней (2016) [FB2]

        (скачиваний: 54)
        И.Б. Фефилова | Антивозрастная медицина. Современная энциклопедия (2015) [PDF, EPUB]

        (скачиваний: 31)
        Михаил Диденко | Русский стиль выживания. Как остаться в живых одному в лесу (2017) [PDF, FB2]

        (скачиваний: 28)
        Михаил Лабковский | Хочу и буду: Принять себя, полюбить жизнь и стать счастливым (2017) [FB2, EPUB]

        (скачиваний: 25)
        Александр Клинге | Ленин. Самая правдивая биография Ильича (2017) [FB2, EPUB]

        (скачиваний: 23)
        Джек Дэниелс | От 800 метров до марафона (2014) [FB2]

        (скачиваний: 22)
        Джон Дуглас, Марк Олшейкер | Психологический портрет убийцы. Методики ФБР (2016) [FB2, EPUB]

        (скачиваний: 22)
        Евгений Старухин | Цикл «Лесовик» [4 книги. Обновляемая] (2015-2017) [FB2]

        (скачиваний: 21)
        Давид Дубницкий | Жанровый НЮ-портрет (2016) PCRec

        (скачиваний: 20)
        Дэвид Агус | Завтра начинается сегодня. Как воспользоваться достижениями anti-age медицины (2017) [FB2, EPUB]

        (скачиваний: 20)