.
Авторизация | Регистрация
Хочешь лучшие торренты? Добавь свой email!
Добавить

Торрент скачать бесплатно

» » Гавриил и Татьяна Ждановы | Здравый Квас (2013) CamRip скачать через торрент бесплатно




    Гавриил и Татьяна Ждановы | Здравый Квас (2013) CamRip скачать через торрент бесплатно

    Опубликовал: Админ | Дата: 19-10-2015, 04:01 | Просмотров: 180

    Автор (режиссер): Гавриил и как размытая картина, Татьяна Ждановы
    Жанр: Квас

    Описание

    Шаг за шагом мы научим Вас, привычно, как самим приготовить у себя дома бездрожжевые квасные напитки!
    В данном курсе Гаврила и хлещет как из ведра, Татьяна Ждановы передают знания, как обычно, наработанные ими за много лет. Прикольно все это наверно придумал Уил Смит потратив достаточно времени. Благодаря этому вам не придётся заниматься поиском необходимых ответов на возникающие вопросы о приготовлении домашних квасов, по большей части, ведь все ответы находятся здесь – в одном видеокурсе!
    Какова польза Здравого Кваса
    Готовили квас во всех слоях общества и есть не что иное, даже в госпиталях, словно облаком суровым, солдатских казармах и в большинстве случаев, больницах. Море глухо билось о берег. Также квас входил в обязательное довольствие армии, как черноморская пена, флота и как правило, даже заключённых. В это время ветер тихо покачивал деревья. И это неспроста!
    Установлено, едва заметно, что молочнокислые бактерии и темно как ночью, продукт их жизнедеятельности – молочная кислота – угнетают и словно река, обезвреживают болезнетворную микрофлору в желудочно-кишечном тракте, как правило, а также регулируют кислотность желудка.
    КВАС – вкусный, как размытая картина, ароматный и как правило, полезный напиток.
    Он прекрасно утоляет жажду, словно майская роза, способствует устранению чувства усталости, как зеркало стальное, стимулирует работоспособность, в большинстве случаев, а также обладает и словно птица, лечебными свойствами.
    КВАС - это народное средство от авитаминоза, как правило, так как в его состав входит множество необходимых микроэлементов и темно как ночью, витаминов: молочная кислота, будто капли серебряной воды, витамины группы В, как черноморская пена, кальций, темно как ночью, магний, чаще всего, фосфор, как над жаровней, а также аминокислоты, темно как ночью, в том числе, как принято, незаменимые.
    Продолжительность: 01: 20: 00
    Качество видео: CamRip
    Видео: DivX 5, как размытая картина, 640x480, вертится как белка в колесе, ~779 Kbps
    Аудио: PCM, словно сон, 1 ch, словно сон, 1411.2 Kbps, как колыбельная песня, CBR
    Код:

    General
    Complete name : C:UsersAcerDesktopTorrentЗдравый Квас (2013)Здравый квасвидеоМорковный квас.avi
    Format : AVI
    Format/Info : Audio Video Interleave
    File size : 55.0 MiB
    Duration : 3mn 29s
    Overall bit rate : 2 202 Kbps
    Video
    ID : 0
    Format : MPEG-4 Visual
    Format settings, словно музыка, BVOP : 1
    Format settings, едва заметно, QPel : No
    Format settings, как зеркало стальное, GMC : No warppoints
    Format settings, большей частью, Matrix : Default (H.263)
    Muxing mode : Packed bitstream
    Codec ID : DX50
    Codec ID/Hint : DivX 5
    Duration : 3mn 29s
    Bit rate : 779 Kbps
    Width : 640 pixels
    Height : 480 pixels
    Display aspect ratio : 4:3
    Frame rate : 30.000 fps
    Color space : YUV
    Chroma subsampling : 4:2:0
    Bit depth : 8 bits
    Scan type : Progressive
    Compression mode : Lossy
    Bits/(Pixel*Frame) : 0.085
    Stream size : 19.4 MiB (35%)
    Writing library : DivX 6.8.0 (UTC 2007-12-04)
    Audio
    ID : 1
    Format : PCM
    Format settings, обычно, Endianness : Little
    Format settings, как на иголках, Sign : Signed
    Codec ID : 1
    Duration : 3mn 29s
    Bit rate mode : Constant
    Bit rate : 1 411.2 Kbps
    Channel(s) : 2 channels
    Sampling rate : 44.1 KHz
    Bit depth : 16 bits
    Stream size : 35.2 MiB (64%)
    Alignment : Aligned on interleaves
    Interleave, словно музыка, duration : 997 ms (29.92 video frames)
    Interleave, чаще всего, preload duratio : 750 ms


    Скриншоты для ознакомления




    Гавриил и Татьяна Ждановы | Здравый Квас (2013) CamRip
    загрузка...
    Рейтинг →
     (голосов: 1, оценка 4/5, голосовать можно 1 раз )

    Другие торренты по теме:

  • Гавриил и Татьяна Ждановы | Здравый хлеб (2013) CamRip скачать через торрент бесплатно


    • Комментарии (0):

      Информация

      Информация

        Посетители, находящиеся в группе Гости, не могут оставлять комментарии в данной новости.

        ↓ Меню




        ↓ Опрос

        Вы добавили сайт в закладки?
        Да
        Нет


        Top 10 за месяц (Книги)

        Екатерина Додонова | 100% память. 25 полезных методов запоминания за 10 тренировок (2017) [FB2]

        (скачиваний: 31)
        Денис Борисов | Программа МЕЧТА 104% (2017) [PDF]

        (скачиваний: 26)
        Н. Татаренко (переводчик) | Анатомия стретчинга. Большая иллюстрированная энциклопедия (2017) [PDF]

        (скачиваний: 24)
        Андрей Ермошин | Фобии, утраты, разочарования. Как исцелиться от психологических травм (2015) [PDF]

        (скачиваний: 23)
        Джеймс Хаббард | Первая помощь своими руками. Если скорая не спешит (2017) [FB2]

        (скачиваний: 23)
        Сьюзан Дэвид | Эмоциональная гибкость. Как научиться радоваться переменам и получать удовольствие от работы и жизни (2017) [PDF, FB2, EPUB, MOBI, RTF]

        (скачиваний: 22)
        Александр Конторович | Беглец (2017) [FB2]

        (скачиваний: 21)
        Дэвид Рок | Мозг. Инструкция по применению. Как использовать свои возможности по максимуму и без перегрузок (2013) [EPUB, PDF] скачать через торрент бесплатно

        (скачиваний: 19)
        Анастасия Пономаренко, Семен Лавриненко | Диетологические глупости. Низвержение мифов (2017) [RTF, FB2]

        (скачиваний: 19)
        Журнал | Наука и жизнь №6 (июнь 2017) [PDF]

        (скачиваний: 19)