.
Авторизация | Регистрация
Хочешь лучшие торренты? Добавь свой email!
Добавить

Торрент скачать бесплатно

» » Гавриил и Татьяна Ждановы | Здравый Квас (2013) CamRip скачать через торрент бесплатно




    Гавриил и Татьяна Ждановы | Здравый Квас (2013) CamRip скачать через торрент бесплатно

    Опубликовал: Админ | Дата: 19-10-2015, 04:01 | Просмотров: 181

    Автор (режиссер): Гавриил и Татьяна Ждановы
    Жанр: Квас

    Описание

    Шаг за шагом мы научим Вас, как самим приготовить у себя дома бездрожжевые квасные напитки!
    В данном курсе Гаврила и Татьяна Ждановы передают знания, наработанные ими за много лет. Прикольно все это наверно придумал Уил Смит потратив достаточно времени. Благодаря этому вам не придётся заниматься поиском необходимых ответов на возникающие вопросы о приготовлении домашних квасов, ведь все ответы находятся здесь – в одном видеокурсе!
    Какова польза Здравого Кваса
    Готовили квас во всех слоях общества и даже в госпиталях, солдатских казармах и больницах. Также квас входил в обязательное довольствие армии, флота и даже заключённых. И это неспроста!
    Установлено, что молочнокислые бактерии и продукт их жизнедеятельности – молочная кислота – угнетают и обезвреживают болезнетворную микрофлору в желудочно-кишечном тракте, а также регулируют кислотность желудка.
    КВАС – вкусный, ароматный и полезный напиток.
    Он прекрасно утоляет жажду, способствует устранению чувства усталости, стимулирует работоспособность, а также обладает и лечебными свойствами.
    КВАС - это народное средство от авитаминоза, так как в его состав входит множество необходимых микроэлементов и витаминов: молочная кислота, витамины группы В, кальций, магний, фосфор, а также аминокислоты, в том числе, незаменимые.
    Продолжительность: 01: 20: 00
    Качество видео: CamRip
    Видео: DivX 5, 640x480, ~779 Kbps
    Аудио: PCM, 1 ch, 1411.2 Kbps, CBR
    Код:

    General
    Complete name : C:UsersAcerDesktopTorrentЗдравый Квас (2013)Здравый квасвидеоМорковный квас.avi
    Format : AVI
    Format/Info : Audio Video Interleave
    File size : 55.0 MiB
    Duration : 3mn 29s
    Overall bit rate : 2 202 Kbps
    Video
    ID : 0
    Format : MPEG-4 Visual
    Format settings, BVOP : 1
    Format settings, QPel : No
    Format settings, GMC : No warppoints
    Format settings, Matrix : Default (H.263)
    Muxing mode : Packed bitstream
    Codec ID : DX50
    Codec ID/Hint : DivX 5
    Duration : 3mn 29s
    Bit rate : 779 Kbps
    Width : 640 pixels
    Height : 480 pixels
    Display aspect ratio : 4:3
    Frame rate : 30.000 fps
    Color space : YUV
    Chroma subsampling : 4:2:0
    Bit depth : 8 bits
    Scan type : Progressive
    Compression mode : Lossy
    Bits/(Pixel*Frame) : 0.085
    Stream size : 19.4 MiB (35%)
    Writing library : DivX 6.8.0 (UTC 2007-12-04)
    Audio
    ID : 1
    Format : PCM
    Format settings, Endianness : Little
    Format settings, Sign : Signed
    Codec ID : 1
    Duration : 3mn 29s
    Bit rate mode : Constant
    Bit rate : 1 411.2 Kbps
    Channel(s) : 2 channels
    Sampling rate : 44.1 KHz
    Bit depth : 16 bits
    Stream size : 35.2 MiB (64%)
    Alignment : Aligned on interleaves
    Interleave, duration : 997 ms (29.92 video frames)
    Interleave, preload duratio : 750 ms


    Скриншоты для ознакомления




    Гавриил и Татьяна Ждановы | Здравый Квас (2013) CamRip
    загрузка...
    Рейтинг →
     (голосов: 1, оценка 3/5, голосовать можно 1 раз )

    Другие торренты по теме:

  • Гавриил и Татьяна Ждановы | Здравый хлеб (2013) CamRip скачать через торрент бесплатно


    • Комментарии (0):

      Информация

      Информация

        Посетители, находящиеся в группе Гости, не могут оставлять комментарии в данной новости.

        ↓ Меню




        ↓ Опрос

        Вы добавили сайт в закладки?
        Да
        Нет


        Top 10 за месяц (Книги)

        Андрей Сазонов | Мифы о нашем теле. Научный подход к примитивным вопросам (2017) [FB2]

        (скачиваний: 30)
        Элла Берту, Сьюзен Элдеркин | Книга как лекарство. Скорая литературная помощь от А до Я (2016) [FB2, EPUB]

        (скачиваний: 27)
        Оуэйн Сервис, Рори Галлахер | Начинай с малого. Научно доказанная система достижения больших целей (2018) [PDF, FB2, EPUB]

        (скачиваний: 24)
        Григорий-Азиз | Фишки Ворда и Экселя [Word and Excel] (2017) PCRec [H.264]

        (скачиваний: 23)
        Юрий Подольский | Делаем сами коптильни, грили, мангалы, уличные печи (2017) [PDF, FB2, EPUB]

        (скачиваний: 22)
        Дмитрий Петров, Алексей Кржижевский | Серия: Полиглот. Выучим иностранный язык за 16 часов [5 книг] (2014-2015) [PDF, DJVU]

        (скачиваний: 21)
        Кевин Келли | Неизбежно. 12 технологических трендов, которые определяют наше будущее (2017) [PDF, EPUB, MOBI]

        (скачиваний: 21)
        Юрий Морозов | Ремонт дачного дома своими руками. Полное руководство (2017) [PDF]

        (скачиваний: 21)
        Наталья Корикова | Полезные и вкусные бутерброды. Алгоритм приготовления и рецепты (2017) [PDF]

        (скачиваний: 20)
        Екатерина Юша | Графоман или писатель Пишем свою первую книгу (2017) [FB2, EPUB]

        (скачиваний: 20)