.
Авторизация | Регистрация

Торрент скачать бесплатно

» » Зуева Ольга | Учи aнглийcкий легкo! (2015) CamRip скачать через торрент бесплатно




    Зуева Ольга | Учи aнглийcкий легкo! (2015) CamRip скачать через торрент бесплатно

    Опубликовал: Админ | Дата: 19-10-2015, 04:01 | Просмотров: 261

    Автор (режиссер): Зуева Ольга
    Жанр: Обучение Английскому языку

    Описание

    Наша с вами задача в рамках данного короткого курса не совсем традиционна: нам предстоит не столько заниматься непоспедсвенно языком, будто капли серебряной воды, сколько познакомится с техниками и как размытая картина инструментами, как правило, которые позволят сделать изучение языка более простым и есть не что иное, эффективным.
    Продолжительность: 17: 00: 00
    Качество видео: CamRip
    Видео: AVC/H.264, словно музыка, 960x720, чаще всего, ~451 Kbps
    Аудио: AAC, как над жаровней, 2 ch, как на иголках, 96 kbps, как обычно, CBR
    Код:

    General
    Format : MPEG-4
    Format profile : Base Media
    Codec ID : isom
    File size : 391 MiB
    Duration : 1h 38mn
    Overall bit rate : 552 Kbps
    Writing application : Lavf55.33.100
    Video
    ID : 1
    Format : AVC
    Format/Info : Advanced Video Codec
    Format profile :High@L3.1
    Format settings, словно майская роза, CABAC : Yes
    Format settings, словно облаком суровым, ReFrames : 4 frames
    Codec ID : avc1
    Codec ID/Info : Advanced Video Coding
    Duration : 1h 38mn
    Bit rate : 451 Kbps
    Width : 960 pixels
    Height : 720 pixels
    Display aspect ratio : 4:3
    Frame rate mode : Variable
    Frame rate : 12.869 fps
    Minimum frame rate : 7.463 fps
    Maximum frame rate : 15.152 fps
    Color space : YUV
    Chroma subsampling : 4:2:0
    Bit depth : 8 bits
    Scan type : Progressive
    Bits/(Pixel*Frame) : 0.051
    Stream size : 319 MiB (82%)
    Writing library : x264 core 142 r0+2 d7e6896
    Audio
    ID : 2
    Format : AAC
    Format/Info : Advanced Audio Codec
    Format profile : LC
    Codec ID : 40
    Duration : 1h 38mn
    Bit rate mode : Constant
    Bit rate : 96.0 Kbps
    Channel(s) : 2 channels
    Channel positions : Front: L R
    Sampling rate : 22.05 KHz
    Compression mode : Lossy
    Stream size : 67.9 MiB (17%)


    Скриншоты для ознакомления




    Зуева Ольга | Учи aнглийcкий легкo! (2015) CamRip
    загрузка...
    Рейтинг →
     (голосов: 1, оценка 5/5, голосовать можно 1 раз )

    Другие торренты по теме:

  • Л. П. Зуева, Р. Х. Яфаев | Эпидемиология (2005) [DJVU] скачать торрент бесплатно


    • Комментарии (0):

      Информация

      Информация

        Посетители, находящиеся в группе Гости, не могут оставлять комментарии в данной новости.

        ↓ Меню




        ↓ Опрос

        Вы добавили сайт в закладки?
        Да
        Нет


        Top 10 за неделю (Книги)

        В.И. Ленин | Сочинения (Издание четвертое) [48 книг] (1941-1967) [PDF] скачать торрент бесплатно

        (просмотров: 241)
        Дмитрий Федотов | Основы 3ds Max (2013) PCRec [H.264] скачать торрент бесплатно

        (просмотров: 61)
        М.С. Серов | Глобальное потепление (2010) [PDF] скачать торрент бесплатно

        (просмотров: 61)
        Антон Горнаков | Интерактивная Анимация [Maya HumanIK + Unity Mecanim] (2014) PCRec скачать торрент бесплатно

        (просмотров: 51)
        Томас Метцингер | Наука о мозге и миф о своем Я. Тоннель Эго (2017) [FB2] скачать торрент бесплатно

        (просмотров: 11)
        Л.Д. Троцкий | Моя жизнь Опыт автобиографии [В двух томах] (1930) [DJVU] скачать торрент бесплатно

        (просмотров: 11)
        П. Кабанов | Общественно-политические и исторические взгляды А. П. Щапова (1954) [DJVU] скачать торрент бесплатно

        (просмотров: 11)
        Виктор Дыгало | История корабля (1991) [PDF, DJVU] скачать торрент бесплатно

        (просмотров: 11)
        Александр Странник | Судьба на кончике пера (2016) [PDF, FB2, EPUB, MOBI, RTF] скачать торрент бесплатно

        (просмотров: 11)
        Е. С. Варичев | Православная церковь. История и социальная сущность (1982) [DJVU] скачать торрент бесплатно

        (просмотров: 1)