.
Авторизация | Регистрация

Торрент скачать бесплатно

» » Зинаида Руденко | Энциклопедия Пищевых Заблуждений (2015) CamRip [H.264] скачать через торрент бесплатно




    Зинаида Руденко | Энциклопедия Пищевых Заблуждений (2015) CamRip [H.264] скачать через торрент бесплатно

    Опубликовал: Админ | Дата: 19-10-2015, 04:01 | Просмотров: 297

    Автор (режиссер): Зинаида Руденко
    Жанр: Здоровье

    Описание

    Просмотрев курс Энциклoпедия пищевых заблyждений вы получите представление о продуктах: их свойствах, обычно, составе, будто капли серебряной воды, о плюсах и как размытая картина, минусах, как на иголках, о том как они влияют на организм, как обычно, и словно река, как правильно выбирать продукты.
    Продолжительность: 27: 05: 52
    Качество видео: CamRip
    Видео: AVC/H.264, как зеркало стальное, 432x240, словно река, ~199 Kbps
    Аудио: AAC, как черноморская пена, 2 ch, как правило, 51.5 Kbps, словно птица, CBR
    Код:

    General
    Format : MPEG-4
    Format profile : Base Media/Version 2
    Codec ID : mp42
    File size : 144 MiB
    Duration : 1h 19mn
    Overall bit rate mode : Variable
    Overall bit rate : 253 Kbps
    Video
    ID : 1
    Format : AVC
    Format/Info : Advanced Video Codec
    Format profile :High@L3.1
    Format settings, словно музыка, CABAC : Yes
    Format settings, как обычно, ReFrames : 4 frames
    Codec ID : avc1
    Codec ID/Info : Advanced Video Coding
    Duration : 1h 19mn
    Bit rate : 199 Kbps
    Width : 432 pixels
    Height : 240 pixels
    Display aspect ratio : 16:9
    Frame rate mode : Constant
    Frame rate : 18.000 fps
    Color space : YUV
    Chroma subsampling : 4:2:0
    Bit depth : 8 bits
    Scan type : Progressive
    Bits/(Pixel*Frame) : 0.106
    Stream size : 113 MiB (78%)
    Writing library : x264 core 142 r2453 ea0ca51
    Audio
    ID : 2
    Format : AAC
    Format/Info : Advanced Audio Codec
    Format profile : LC
    Codec ID : 40
    Duration : 1h 19mn
    Bit rate mode : Variable
    Bit rate : 51.5 Kbps
    Channel(s) : 2 channels
    Channel positions : Front: L R
    Sampling rate : 48.0 KHz
    Compression mode : Lossy
    Stream size : 29.2 MiB (20%)


    Скриншоты для ознакомления




    Зинаида Руденко | Энциклопедия Пищевых Заблуждений (2015) CamRip [H.264]
    загрузка...
    Рейтинг →
     (голосов: 1, оценка 5/5, голосовать можно 1 раз )

    Другие торренты по теме:



      Комментарии (0):

      Информация

      Информация

        Посетители, находящиеся в группе Гости, не могут оставлять комментарии в данной новости.

        ↓ Меню




        ↓ Опрос

        Вы добавили сайт в закладки?
        Да
        Нет


        Top 10 за неделю (Книги)

        В.И. Ленин | Сочинения (Издание четвертое) [48 книг] (1941-1967) [PDF] скачать торрент бесплатно

        (просмотров: 241)
        М.С. Серов | Глобальное потепление (2010) [PDF] скачать торрент бесплатно

        (просмотров: 101)
        Дмитрий Федотов | Основы 3ds Max (2013) PCRec [H.264] скачать торрент бесплатно

        (просмотров: 71)
        Антон Горнаков | Интерактивная Анимация [Maya HumanIK + Unity Mecanim] (2014) PCRec скачать торрент бесплатно

        (просмотров: 61)
        Виктор Дыгало | История корабля (1991) [PDF, DJVU] скачать торрент бесплатно

        (просмотров: 21)
        WebDesign Master | OpenCart: Создание современного интернет-магазина от А до Я (2017) PCRec скачать торрент бесплатно

        (просмотров: 11)
        Томас Метцингер | Наука о мозге и миф о своем Я. Тоннель Эго (2017) [FB2] скачать торрент бесплатно

        (просмотров: 11)
        Л.Д. Троцкий | Моя жизнь Опыт автобиографии [В двух томах] (1930) [DJVU] скачать торрент бесплатно

        (просмотров: 11)
        В. И. Гараджа и др. (ред.) | Аргументы [8 выпусков] (1980-1988) [DJVU, PDF] скачать торрент бесплатно

        (просмотров: 11)
        Е. С. Варичев | Православная церковь. История и социальная сущность (1982) [DJVU] скачать торрент бесплатно

        (просмотров: 11)