.
Авторизация | Регистрация
Хочешь лучшие торренты? Добавь свой email!
Добавить

Торрент скачать бесплатно

» » Зинаида Руденко | Энциклопедия Пищевых Заблуждений (2015) CamRip [H.264] скачать через торрент бесплатно




    Зинаида Руденко | Энциклопедия Пищевых Заблуждений (2015) CamRip [H.264] скачать через торрент бесплатно

    Опубликовал: Админ | Дата: 19-10-2015, 04:01 | Просмотров: 298

    Автор (режиссер): Зинаида Руденко
    Жанр: Здоровье

    Описание

    Просмотрев курс Энциклoпедия пищевых заблyждений вы получите представление о продуктах: их свойствах, составе, о плюсах и минусах, о том как они влияют на организм, и как правильно выбирать продукты.
    Продолжительность: 27: 05: 52
    Качество видео: CamRip
    Видео: AVC/H.264, 432x240, ~199 Kbps
    Аудио: AAC, 2 ch, 51.5 Kbps, CBR
    Код:

    General
    Format : MPEG-4
    Format profile : Base Media/Version 2
    Codec ID : mp42
    File size : 144 MiB
    Duration : 1h 19mn
    Overall bit rate mode : Variable
    Overall bit rate : 253 Kbps
    Video
    ID : 1
    Format : AVC
    Format/Info : Advanced Video Codec
    Format profile :High@L3.1
    Format settings, CABAC : Yes
    Format settings, ReFrames : 4 frames
    Codec ID : avc1
    Codec ID/Info : Advanced Video Coding
    Duration : 1h 19mn
    Bit rate : 199 Kbps
    Width : 432 pixels
    Height : 240 pixels
    Display aspect ratio : 16:9
    Frame rate mode : Constant
    Frame rate : 18.000 fps
    Color space : YUV
    Chroma subsampling : 4:2:0
    Bit depth : 8 bits
    Scan type : Progressive
    Bits/(Pixel*Frame) : 0.106
    Stream size : 113 MiB (78%)
    Writing library : x264 core 142 r2453 ea0ca51
    Audio
    ID : 2
    Format : AAC
    Format/Info : Advanced Audio Codec
    Format profile : LC
    Codec ID : 40
    Duration : 1h 19mn
    Bit rate mode : Variable
    Bit rate : 51.5 Kbps
    Channel(s) : 2 channels
    Channel positions : Front: L R
    Sampling rate : 48.0 KHz
    Compression mode : Lossy
    Stream size : 29.2 MiB (20%)


    Скриншоты для ознакомления




    Зинаида Руденко | Энциклопедия Пищевых Заблуждений (2015) CamRip [H.264]
    загрузка...
    Рейтинг →
     (голосов: 1, оценка 4/5, голосовать можно 1 раз )

    Другие торренты по теме:

  • Зинаида Лукьянова | Коллекция видеокурсов по фото-видео обработке от Зинаиды Лукьяновой (2015) PCRec [H.264 / 720p] скачать через торрент бесплатно
  • Зинаида Лукьянова и Евгений Попов | Видеоуроки Adobe Photoshop от Зинаиды Лукьяновой и Евгения Попова (2007-2015) [SWF] [Обновление от 10.09.2015] скачать через торрент бесплатно
  • Зинаида Куриленко | Повесть о сыне (1966) [PDF, DJVU] скачать через торрент бесплатно
  • Зинаида Лукьянова | Photoshop. Уроки повышения мастерства 2.0 (2015) VIP версия с бонусами [H.264] скачать через торрент бесплатно
  • Зинаида Миркина, Григорий Померанц | Великие религии мира (2012) [FB2] скачать через торрент бесплатно
  • Зинаида Лукьянова | Фотошоп с нуля в видеоформате 3.0 (2015) PCRec [H.264 / 720p] скачать через торрент бесплатно
  • Зинаида Фосдик | Мои Учителя (2016) [MP3]
  • Зинаида Сурова, Филипп Суров | Занималки. Лето. Увлекательные занятия для детей и родителей (2015) [PDF]


    • Комментарии (0):

      Информация

      Информация

        Посетители, находящиеся в группе Гости, не могут оставлять комментарии в данной новости.

        ↓ Меню




        ↓ Опрос

        Вы добавили сайт в закладки?
        Да
        Нет


        Top 10 за месяц (Книги)

        Джиллиан Майклз | Знаменитая программа Джиллиан Майклз: Стройное и здоровое тело за 30 дней (2016) [FB2]

        (скачиваний: 54)
        И.Б. Фефилова | Антивозрастная медицина. Современная энциклопедия (2015) [PDF, EPUB]

        (скачиваний: 31)
        Михаил Диденко | Русский стиль выживания. Как остаться в живых одному в лесу (2017) [PDF, FB2]

        (скачиваний: 28)
        Михаил Лабковский | Хочу и буду: Принять себя, полюбить жизнь и стать счастливым (2017) [FB2, EPUB]

        (скачиваний: 25)
        Александр Клинге | Ленин. Самая правдивая биография Ильича (2017) [FB2, EPUB]

        (скачиваний: 23)
        Джек Дэниелс | От 800 метров до марафона (2014) [FB2]

        (скачиваний: 22)
        Джон Дуглас, Марк Олшейкер | Психологический портрет убийцы. Методики ФБР (2016) [FB2, EPUB]

        (скачиваний: 22)
        Евгений Старухин | Цикл «Лесовик» [4 книги. Обновляемая] (2015-2017) [FB2]

        (скачиваний: 21)
        Давид Дубницкий | Жанровый НЮ-портрет (2016) PCRec

        (скачиваний: 20)
        Дэвид Агус | Завтра начинается сегодня. Как воспользоваться достижениями anti-age медицины (2017) [FB2, EPUB]

        (скачиваний: 20)