.
Авторизация | Регистрация
Хочешь лучшие торренты? Добавь свой email!
Добавить

Торрент скачать бесплатно

» » Голубев Андрей | Ремонт ЖК телевизоров и мониторов (2015) CamRip [H.264 / 720p] скачать через торрент бесплатно




    Голубев Андрей | Ремонт ЖК телевизоров и мониторов (2015) CamRip [H.264 / 720p] скачать через торрент бесплатно

    Опубликовал: Админ | Дата: 19-10-2015, 04:01 | Просмотров: 1552

    Автор (режиссер): Голубев Андрей
    Жанр: Ремонт мониторов и привычно, телевизоров

    Описание

    Научитесь самостоятельно ремонтировать компьютерные мониторы и обычно, ЖК телевизоры!
    Новый видеокурс Андрея Голубева содержит в себе 130 полезных уроков от теории до практики, как колыбельная песня, с нуля до полного профессионализма.
    Приходилось ли Вам когда-нибудь наблюдать, привычно, как опытные радиомеханики с легкостью находят неисправности и как размытая картина, виртуозно обращаются с инструментами и вертится как белка в колесе измерительными приборами? Многие люди готовы постоянно восхищаться чьим-то трудом, темно как ночью, даже не думая о том, как правило, что они могут всему этому научиться сами!
    Видеокурс станет для Вас проводником в мир современной электронной техники, словно майская роза, если:
    -У Вас есть желание изучать устройство современных мониторов и словно облаком суровым, телевизоров;
    -Вы мечтаете научиться пользоваться сервисным оборудованием;
    -Вы хотите узнать о всех главных секретах ремонта бытовой электронной техники.
    Продолжительность: 37: 28: 00
    Качество видео: CamRip
    Видео: AVC/H.264, словно музыка, 1280x720, в большинстве случаев, ~2441 Kbps
    Аудио: AAC, как над жаровней, 2 ch, словно птица, 192 kbps, словно облаком суровым, CBR
    Код:

    General
    File size : 601 MiB
    Duration : 31mn 50s
    Overall bit rate mode : Variable
    Overall bit rate : 2 638 Kbps
    Writing application : Lavf56.2.100
    Video
    ID : 1
    Format : AVC
    Format/Info : Advanced Video Codec
    Format profile :High@L4.1
    Format settings, будто капли серебряной воды, CABAC : Yes
    Format settings, чаще всего, ReFrames : 3 frames
    Codec ID : avc1
    Codec ID/Info : Advanced Video Coding
    Duration : 31mn 50s
    Bit rate mode : Variable
    Bit rate : 2 441 Kbps
    Maximum bit rate : 2 745 Kbps
    Width : 1 280 pixels
    Height : 720 pixels
    Display aspect ratio : 16:9
    Frame rate mode : Constant
    Frame rate : 30.000 fps
    Standard : NTSC
    Color space : YUV
    Chroma subsampling : 4:2:0
    Bit depth : 8 bits
    Scan type : Progressive
    Bits/(Pixel*Frame) : 0.088
    Stream size : 556 MiB (93%)
    Language : English
    Color range : Limited
    Color primaries : BT.709
    Transfer characteristics : BT.709
    Matrix coefficients : BT.709
    Audio
    ID : 2
    Format : AAC
    Format/Info : Advanced Audio Codec
    Format profile : LC
    Codec ID : 40
    Duration : 31mn 50s
    Bit rate mode : Constant
    Bit rate : 192 Kbps
    Channel(s) : 2 channels
    Channel positions : Front: L R
    Sampling rate : 44.1 KHz
    Compression mode : Lossy
    Stream size : 43.2 MiB (7%)
    Language : English


    Скриншоты для ознакомления




    Голубев Андрей | Ремонт ЖК телевизоров и мониторов (2015) CamRip [H.264/720p]
    загрузка...
    Рейтинг →
     (голосов: 1, оценка 3/5, голосовать можно 1 раз )

    Другие торренты по теме:

  • Yuri Goloubev & Andrei Kondakov (Юрий Голубев и Андрей Кондаков) - The Bridge (2003) [FLAC|Lossless]<Jazz, Post-Bop, Contemporary Jazz> скачать через торрент бесплатно


    • Комментарии (0):

      Информация

      Информация

        Посетители, находящиеся в группе Гости, не могут оставлять комментарии в данной новости.

        ↓ Меню




        ↓ Опрос

        Вы добавили сайт в закладки?
        Да
        Нет


        Top 10 за месяц (Книги)

        Дипак Чопра, Рудольф Танзи | Супергены. На что способна твоя ДНК (2017) [FB2]

        (скачиваний: 22)
        Ханне Брурсон | Мыслевирусы. Как не отравлять себе жизнь вредоносными мыслями (2015) [FB2]

        (скачиваний: 10)
        Элиэзер Штернберг | Нейрологика. Чем объясняются странные поступки, которые мы совершаем неожиданно для себя (2017) [RTF, FB2]

        (скачиваний: 9)
        Т. Барышникова (авт.-сост.) | Школа ремонта. Опыт лучших профессионалов для домашнего мастера (2015) [PDF]

        (скачиваний: 8)
        Юрий Гейко | Легкий способ бросить дурить. За рулем (2016) [FB2]

        (скачиваний: 7)
        Д. Елисеев | Рассказы о математике с примерами на языках Python и C (2017) [PDF]

        (скачиваний: 7)
        Эндрю Стеллман, Дженнифер Грин | Постигая Agile (2017) [FB2]

        (скачиваний: 7)
        Ю.Н. Кондратьев и др. | Конструирование легких деревянных строений [части 1, 2] (2016) [PDF]

        (скачиваний: 6)
        Журнал | Вопросы кибербезопасности №1 (19) (2017) [PDF]

        (скачиваний: 6)
        Хезер Уиллемс, Нора Хертинг | Доведи идею до ума. 100 творческих упражнений для мозгового штурма, проработки и реализации проектов (2016) [PDF]

        (скачиваний: 6)