.
Авторизация | Регистрация
Хочешь лучшие торренты? Добавь свой email!
Добавить

Торрент скачать бесплатно

» » Меркулов Алексей | Использование AutoCAD на 100% 2.0 (2015) PCRec [H.264 / 720p] скачать через торрент бесплатно




    Меркулов Алексей | Использование AutoCAD на 100% 2.0 (2015) PCRec [H.264 / 720p] скачать через торрент бесплатно

    Опубликовал: Админ | Дата: 19-10-2015, 04:01 | Просмотров: 581

    Автор (режиссер): Меркулов Алексей
    Жанр: AutoCAD

    Описание

    Видео курс по практическому применению AutoCAD в любой области. 80% специалистов, даже работающих в AutoCAD несколько лет, не догадываются о том, что можно легко оптимизировать и ускорить свою работу с помощью программы.
    Поэтому мы создали видео обучение, которое поможет справиться с задачами современного проектирования в AutoCAD.
    Новый курс Использование AutoCAD на 100% 2.0
    -Полностью перезаписан на версии AutoCAD 2016
    -Для обучения подойдут версии AutoCAD 2010-2016
    Продолжительность: 19: 00: 00
    Качество видео: PCRec
    Видео: AVC/H.264, 1280x720, ~438 Kbps
    Аудио: AAC, 2 ch, 126 kbps, CBR
    Код:

    General
    Format : MPEG-4
    Format profile : Base Media/Version 2
    Codec ID : mp42
    File size : 93.2 MiB
    Duration : 22mn 59s
    Overall bit rate mode : Variable
    Overall bit rate : 566 Kbps
    Encoded date : UTC 2015-09-28 16:15:27
    Tagged date : UTC 2015-09-28 16:15:27
    Video
    ID : 1
    Format : AVC
    Format/Info : Advanced Video Codec
    Format profile :Baseline@L3.1
    Format settings, CABAC : No
    Format settings, ReFrames : 3 frames
    Format settings, GOP : M=1, N=120
    Codec ID : avc1
    Codec ID/Info : Advanced Video Coding
    Duration : 22mn 59s
    Source duration : 22mn 59s
    Bit rate : 438 Kbps
    Width : 1 280 pixels
    Height : 720 pixels
    Display aspect ratio : 16:9
    Frame rate mode : Variable
    Frame rate : 24.000 fps
    Minimum frame rate : 24.000 fps
    Maximum frame rate : 24.024 fps
    Color space : YUV
    Chroma subsampling : 4:2:0
    Bit depth : 8 bits
    Scan type : Progressive
    Bits/(Pixel*Frame) : 0.020
    Stream size : 72.1 MiB (77%)
    Source stream size : 72.1 MiB (77%)
    Language : English
    Encoded date : UTC 2015-09-28 16:15:28
    Tagged date : UTC 2015-09-28 16:15:28
    Color range : Limited
    mdhd_Duration : 1379917
    Audio
    ID : 2
    Format : AAC
    Format/Info : Advanced Audio Codec
    Format profile : LC
    Codec ID : 40
    Duration : 22mn 59s
    Source duration : 22mn 59s
    Bit rate mode : Variable
    Bit rate : 126 Kbps
    Maximum bit rate : 294 Kbps
    Channel(s) : 2 channels
    Channel positions : Front: L R
    Sampling rate : 44.1 KHz
    Compression mode : Lossy
    Stream size : 20.7 MiB (22%)
    Source stream size : 20.7 MiB (22%)
    Language : English
    Encoded date : UTC 2015-09-28 16:15:28
    Tagged date : UTC 2015-09-28 16:15:28
    mdhd_Duration : 1379939


    Скриншоты для ознакомления




    Меркулов Алексей | Использование AutoCAD на 100% 2.0 (2015) PCRec [H.264/720p]
    загрузка...
    Рейтинг →
     (голосов: 1, оценка 5/5, голосовать можно 1 раз )

    Другие торренты по теме:

  • Алексей Меркулов | Экспресс курс AutoCAD (2015) PCRec [H.264 / 720p] скачать через торрент бесплатно
  • Алексей Меркулов | Создание проекта в AutoCAD "От идеи до печати" (2015) [PDF]
  • Алексей Меркулов, Надежда Бейнер | ArchiCAD. Моделирование коттеджа (2016) PCRec
  • Алексей Меркулов | Оформление проектов в AUTOCAD по ГОСТ (2013) [unpacked]


    • Комментарии (0):

      Информация

      Информация

        Посетители, находящиеся в группе Гости, не могут оставлять комментарии в данной новости.

        ↓ Меню




        ↓ Опрос

        Вы добавили сайт в закладки?
        Да
        Нет


        Top 10 за месяц (Книги)