.
Авторизация | Регистрация
Хочешь лучшие торренты? Добавь свой email!
Добавить

Торрент скачать бесплатно

» » Антон Уницын | Как снимать свадьбы с удовольствием (2015) PCRec [H.264] скачать через торрент бесплатно




    Антон Уницын | Как снимать свадьбы с удовольствием (2015) PCRec [H.264] скачать через торрент бесплатно

    Опубликовал: Админ | Дата: 18-10-2015, 04:02 | Просмотров: 707

    Автор (режиссер): Антон Уницын
    Жанр: Практический онлайн-интенсив

    Описание

    На интенсиве Антона Уницына, вы узнаете, как фотографу зарабатывать любимым
    делом, не изменения своему творчеству. Почему стоит начать со свадебной
    фотографии, как стать свадебным фотографом, что для этого требуется, как
    проходит свадебная съёмка, где искать клиентов, как быстро обрабатывать
    фотографии, а также многое другое.
    Продолжительность: 13: 17: 16
    Качество видео: PCRec
    Видео: AVC/H.264, 1920x1200, ~2010 Kbps
    Аудио: AAC, 2 ch, 126 Kbps, VBR
    Код:

    Видео
    Идентификатор : 1
    Формат : AVC
    Формат/Информация : Advanced Video Codec
    Профиль формата : Baseline@L5
    Параметр CABAC формата : Нет
    Параметр ReFrames формата : 3 кадра
    Идентификатор кодека : avc1
    Идентификатор кодека/Информация : Advanced Video Coding
    Продолжительность : 2 ч. 52 м.
    Продолжительность оригинала : 2 ч. 52 м.
    Битрейт : 2010 Кбит/сек
    Ширина : 1920 пикселей
    Высота : 1200 пикселей
    Соотношение сторон : 16:10
    Режим частоты кадров : Переменный
    Частота кадров : 30, 000 кадров/сек
    Минимальная частота кадров : 30, 000 кадров/сек
    Максимальная частота кадров : 30, 030 кадров/сек
    Стандарт вещания : NTSC
    Цветовое пространство : YUV
    Субдискретизация насыщенности : 4:2:0
    Битовая глубина : 8 бит
    Тип развёртки : Прогрессивная
    Бит/(Пиксели*Кадры) : 0.029
    Размер потока : 2, 43 Гбайт (94%)
    Размер потока оригинала : 2, 43 Гбайт (94%)
    Язык : English
    Дата кодирования : UTC 2015-07-19 22:54:07
    Дата пометки : UTC 2015-07-19 22:54:07
    Цветовой диапазон : Limited
    mdhd_Duration : 10379867
    Аудио
    Идентификатор : 2
    Формат : AAC
    Формат/Информация : Advanced Audio Codec
    Профиль формата : LC
    Идентификатор кодека : 40
    Продолжительность : 2 ч. 52 м.
    Продолжительность оригинала : 2 ч. 52 м.
    Вид битрейта : Переменный
    Битрейт : 126 Кбит/сек
    Максимальный битрейт : 288 Кбит/сек
    Каналы : 2 канала
    Расположение каналов : Front: L R
    Частота : 44, 1 КГц
    Метод сжатия : С потерями
    Размер потока : 155 Мбайт (6%)
    Размер потока оригинала : 155 Мбайт (6%)
    Язык : English
    Дата кодирования : UTC 2015-07-19 22:54:07
    Дата пометки : UTC 2015-07-19 22:54:07
    mdhd_Duration : 10379900


    Скриншоты для ознакомления




    Антон Уницын | Как снимать свадьбы с удовольствием (2015) PCRec [H.264]
    загрузка...
    Рейтинг →
     (голосов: 1, оценка 5/5, голосовать можно 1 раз )

    Другие торренты по теме:

  • Антон Уницын | Свадебная фотография от первого лица (2015) PCRec [H.264 / 1080p] скачать через торрент бесплатно
  • Антон Уницын | Правильный свет в фотографии (2015) PCRec [H.264 / 720p] скачать через торрент бесплатно


    • Комментарии (0):

      Информация

      Информация

        Посетители, находящиеся в группе Гости, не могут оставлять комментарии в данной новости.

        ↓ Меню




        ↓ Опрос

        Вы добавили сайт в закладки?
        Да
        Нет


        Top 10 за месяц (Книги)

        Джиллиан Майклз | Знаменитая программа Джиллиан Майклз: Стройное и здоровое тело за 30 дней (2016) [FB2]

        (скачиваний: 63)
        И.Б. Фефилова | Антивозрастная медицина. Современная энциклопедия (2015) [PDF, EPUB]

        (скачиваний: 31)
        Михаил Диденко | Русский стиль выживания. Как остаться в живых одному в лесу (2017) [PDF, FB2]

        (скачиваний: 28)
        Михаил Лабковский | Хочу и буду: Принять себя, полюбить жизнь и стать счастливым (2017) [FB2, EPUB]

        (скачиваний: 25)
        Александр Клинге | Ленин. Самая правдивая биография Ильича (2017) [FB2, EPUB]

        (скачиваний: 23)
        Евгений Старухин | Цикл «Лесовик» [4 книги. Обновляемая] (2015-2017) [FB2]

        (скачиваний: 23)
        Джек Дэниелс | От 800 метров до марафона (2014) [FB2]

        (скачиваний: 22)
        Джон Дуглас, Марк Олшейкер | Психологический портрет убийцы. Методики ФБР (2016) [FB2, EPUB]

        (скачиваний: 22)
        Давид Дубницкий | Жанровый НЮ-портрет (2016) PCRec

        (скачиваний: 21)
        Дэвид Агус | Завтра начинается сегодня. Как воспользоваться достижениями anti-age медицины (2017) [FB2, EPUB]

        (скачиваний: 20)