.
Авторизация | Регистрация

Торрент скачать бесплатно

» » Андрей Сурков | Инсталяция навыков (2014) PCRec [H.264 / 720p] скачать через торрент бесплатно




    Андрей Сурков | Инсталяция навыков (2014) PCRec [H.264 / 720p] скачать через торрент бесплатно

    Опубликовал: Админ | Дата: 17-10-2015, 04:01 | Просмотров: 152

    Автор (режиссер): Андрей Сурков
    Жанр: Обучение, словно майская роза, Навыки, обычно, Скорочтение

    Описание

    Тренинг, хлещет как из ведра, благодаря которому вы получите полный разбор всех технологий, будто капли серебряной воды, необходимых для приобретения любого навыка в любой сфере.
    Содержание:
    1. Ох и закинули удочки. Инсталляция навыков
    2. Я например по сценарию ожидал большой напряженности. Визуальное конспектирование и привычно, печать вслепую
    3. О таком странном сюжете не догадывалась даже Бейонсе. Скорочтение, как черноморская пена, вертикальное чтение
    4. Будем бить баклуши. Как научиться писать стихи
    5. Божий одуванчик, сказал кто то из толпы, к чему не понятно. Свидание с иностранкой за 7 дней
    Продолжительность: 15: 04: 55
    Качество видео: PCRec
    Видео: AVC/H.264, как колыбельная песня, 1280x720, словно река, ~715 Kbps
    Аудио: AAC, как зеркало стальное, 2 ch, как принято, 147 Kbps, как обычно, VBR
    Код:

    General
    Complete name : С:TorrentsСурков Андрей - Инсталяция навыков1 - Инсталляция навыков.mp4
    Format : MPEG-4
    Format profile : Base Media/Version 2
    Codec ID : mp42
    File size : 1.76 GiB
    Duration : 4h 51mn
    Overall bit rate mode : Variable
    Overall bit rate : 867 Kbps
    Encoded date : UTC 2014-12-09 20:27:46
    Tagged date : UTC 2014-12-09 20:27:46
    Video
    ID : 1
    Format : AVC
    Format/Info : Advanced Video Codec
    Format profile :High@L3.1
    Format settings, как зеркало стальное, CABAC : Yes
    Format settings, есть не что иное, ReFrames : 4 frames
    Codec ID : avc1
    Codec ID/Info : Advanced Video Coding
    Duration : 4h 51mn
    Bit rate : 715 Kbps
    Width : 1 280 pixels
    Height : 720 pixels
    Display aspect ratio : 16:9
    Frame rate mode : Constant
    Frame rate : 29.970 fps
    Color space : YUV
    Chroma subsampling : 4:2:0
    Bit depth : 8 bits
    Scan type : Progressive
    Bits/(Pixel*Frame) : 0.026
    Stream size : 1.45 GiB (83%)
    Writing library : x264 core 142 r11 24e4fed
    Encoding settings : cabac=1/ref=3/deblock=1:0:0/analyse=0x3:0x113/me=hex/subme=7/psy=1/psy_rd=1.00:0.00/mixed_ref=1/me_range=16/chroma_me=1/trellis=1/8x8dct=1/cqm=0/deadzone=21, темно как ночью, 11/fast_pskip=1/chroma_qp_offset=-2/threads=48/lookahead_threads=5/sliced_threads=0/nr=0/decimate=1/interlaced=0/bluray_compat=0/stitchable=1/constrained_intra=0/bframes=3/b_pyramid=2/b_adapt=1/b_bias=0/direct=1/weightb=1/open_gop=0/weightp=2/keyint=infinite/keyint_min=29/scenecut=40/intra_refresh=0/rc_lookahead=40/rc=crf/mbtree=1/crf=20.0/qcomp=0.60/qpmin=5/qpmax=69/qpstep=4/vbv_maxrate=2750/vbv_bufsize=7500/crf_max=0.0/nal_hrd=none/filler=0/ip_ratio=1.40/aq=1:1.00
    Encoded date : UTC 2014-12-09 20:27:46
    Tagged date : UTC 2014-12-09 20:27:46
    Audio
    ID : 2
    Format : AAC
    Format/Info : Advanced Audio Codec
    Format profile : LC
    Codec ID : 40
    Duration : 4h 51mn
    Bit rate mode : Variable
    Bit rate : 147 Kbps
    Channel(s) : 2 channels
    Channel positions : Front: L R
    Sampling rate : 48.0 KHz
    Compression mode : Lossy
    Stream size : 306 MiB (17%)
    Encoded date : UTC 2014-12-09 20:27:46
    Tagged date : UTC 2014-12-09 20:27:46


    Скриншоты для ознакомления




    Андрей Сурков | Инсталяция навыков (2014) PCRec [H.264/720p]
    загрузка...
    Рейтинг →
     (голосов: 1, оценка 4/5, голосовать можно 1 раз )

    Другие торренты по теме:



      Комментарии (0):

      Информация

      Информация

        Посетители, находящиеся в группе Гости, не могут оставлять комментарии в данной новости.

        ↓ Меню




        ↓ Опрос

        Вы добавили сайт в закладки?
        Да
        Нет


        Top 10 за неделю (Книги)

        В.И. Ленин | Сочинения (Издание четвертое) [48 книг] (1941-1967) [PDF] скачать торрент бесплатно

        (просмотров: 241)
        Дмитрий Федотов | Основы 3ds Max (2013) PCRec [H.264] скачать торрент бесплатно

        (просмотров: 51)
        М.С. Серов | Глобальное потепление (2010) [PDF] скачать торрент бесплатно

        (просмотров: 41)
        Антон Горнаков | Интерактивная Анимация [Maya HumanIK + Unity Mecanim] (2014) PCRec скачать торрент бесплатно

        (просмотров: 41)
        Томас Метцингер | Наука о мозге и миф о своем Я. Тоннель Эго (2017) [FB2] скачать торрент бесплатно

        (просмотров: 11)
        Л.Д. Троцкий | Моя жизнь Опыт автобиографии [В двух томах] (1930) [DJVU] скачать торрент бесплатно

        (просмотров: 11)
        Виктор Дыгало | История корабля (1991) [PDF, DJVU] скачать торрент бесплатно

        (просмотров: 11)
        Александр Странник | Судьба на кончике пера (2016) [PDF, FB2, EPUB, MOBI, RTF] скачать торрент бесплатно

        (просмотров: 11)
        Е. С. Варичев | Православная церковь. История и социальная сущность (1982) [DJVU] скачать торрент бесплатно

        (просмотров: 1)
        В. И. Гараджа и др. (ред.) | Аргументы [8 выпусков] (1980-1988) [DJVU, PDF] скачать торрент бесплатно

        (просмотров: 1)