.
Авторизация | Регистрация
Хочешь лучшие торренты? Добавь свой email!
Добавить

Торрент скачать бесплатно

» » Eкaтepинa Mиpимaнoва | Минус 60. Худеем за 21 день (2013) CamRip [H.264] скачать через торрент бесплатно




    Eкaтepинa Mиpимaнoва | Минус 60. Худеем за 21 день (2013) CamRip [H.264] скачать через торрент бесплатно

    Опубликовал: Админ | Дата: 12-10-2015, 04:01 | Просмотров: 191

    Автор (режиссер): Eкaтepинa Mиpимaнoва
    Жанр: Здоровье

    Описание

    Революционный тренинг, который не имеет аналогов! Теперь вы сможете худеть под руководством Екатерины Миримановой 21 день!
    Почему именно 21 день?
    Психологи утверждают, что это именно тот срок, за который можно действительно внедрить в жизнь новую привычку. Ведь питание по системе Минус 60 это просто привычка, однажды наработав которую, она навсегда останется с вами. Блошиный рынок, сказал кто то из толпы, к чему не понятно. Как чистить зубы утром и перед сном.
    90% ситуаций, когда человек решает начать худеть и не доводит дело до конца связаны с тем, что он не умеет проходить периоды спадов. Это очень важно! Начать худеть легко, но намного важнее научиться проходить спады. И первый спад - он самый тяжелый. О таком странном сюжете не догадывалась даже Шакира. И именно 21 день - это хороший срок для того, чтобы каждая из нас прошла через первый спад, и научилась их проходить самостоятельно. Конечно, это будет не легко. Когда ваш ум сам говорит ну сегодня один раз можно нарушить, в голову лезет куча отмазок, почему вам не надо меняться и надо остаться прежней. Тут без помощи со стороны довольно сложно, и я помогу вам пройти первый спад. Тем более, что есть в моем арсенале отличные психологические упражнения сильно снижающие тяжесть спадов.
    Продолжительность: 04: 00: 00
    Качество видео: CamRip
    Видео: AVC/H.264, 480x360, ~288 Kbps
    Аудио: AAC, 2 ch, 192 kbps, CBR
    Код:

    General
    Format : Flash Video
    File size : 13.2 MiB
    Duration : 4mn 21s
    Overall bit rate : 425 Kbps
    httphostt_head : r8---sn-4g57kued.c.youtube.com
    Video
    Format : AVC
    Format/Info : Advanced Video Codec
    Format profile : Main@L3
    Format settings, CABAC : Yes
    Format settings, ReFrames : 3 frames
    Format settings, GOP : M=1, N=60
    Codec ID : 7
    Duration : 4mn 21s
    Bit rate : 288 Kbps
    Width : 480 pixels
    Height : 360 pixels
    Display aspect ratio : 4:3
    Frame rate mode : Constant
    Frame rate : 29.970 fps
    Color space : YUV
    Chroma subsampling : 4:2:0
    Bit depth : 8 bits
    Scan type : Progressive
    Bits/(Pixel*Frame) : 0.056
    Stream size : 8.96 MiB (68%)
    Audio
    Format : AAC
    Format/Info : Advanced Audio Codec
    Format profile : LC
    Codec ID : 10
    Duration : 4mn 21s
    Bit rate : 129 Kbps
    Channel(s) : 2 channels
    Channel positions : Front: L R
    Sampling rate : 44.1 KHz
    Compression mode : Lossy
    Stream size : 4.01 MiB (30%)


    Скриншоты для ознакомления




    Eкaтepинa Mиpимaнoва | Минус 60. Худеем за 21 день (2013) CamRip [H.264]
    загрузка...
    Рейтинг →
     (голосов: 1, оценка 5/5, голосовать можно 1 раз )

    Другие торренты по теме:



      Комментарии (0):

      Информация

      Информация

        Посетители, находящиеся в группе Гости, не могут оставлять комментарии в данной новости.

        ↓ Меню




        ↓ Опрос

        Вы добавили сайт в закладки?
        Да
        Нет


        Top 10 за месяц (Книги)

        Джиллиан Майклз | Знаменитая программа Джиллиан Майклз: Стройное и здоровое тело за 30 дней (2016) [FB2]

        (скачиваний: 63)
        И.Б. Фефилова | Антивозрастная медицина. Современная энциклопедия (2015) [PDF, EPUB]

        (скачиваний: 31)
        Михаил Диденко | Русский стиль выживания. Как остаться в живых одному в лесу (2017) [PDF, FB2]

        (скачиваний: 28)
        Михаил Лабковский | Хочу и буду: Принять себя, полюбить жизнь и стать счастливым (2017) [FB2, EPUB]

        (скачиваний: 27)
        Александр Клинге | Ленин. Самая правдивая биография Ильича (2017) [FB2, EPUB]

        (скачиваний: 23)
        Евгений Старухин | Цикл «Лесовик» [4 книги. Обновляемая] (2015-2017) [FB2]

        (скачиваний: 23)
        Джон Дуглас, Марк Олшейкер | Психологический портрет убийцы. Методики ФБР (2016) [FB2, EPUB]

        (скачиваний: 22)
        Джек Дэниелс | От 800 метров до марафона (2014) [FB2]

        (скачиваний: 22)
        Давид Дубницкий | Жанровый НЮ-портрет (2016) PCRec

        (скачиваний: 21)
        Дэвид Агус | Завтра начинается сегодня. Как воспользоваться достижениями anti-age медицины (2017) [FB2, EPUB]

        (скачиваний: 20)