.
Авторизация | Регистрация
Хочешь лучшие торренты? Добавь свой email!
Добавить

Торрент скачать бесплатно

» » Джошуа Дэвис | Программирование графики I: Введение в генеративное искусство / Programming Graphics I: Introduction to Generative Art (2014) PCRec [H.264 / 720p] скачать через торрент бесплатно




    Джошуа Дэвис | Программирование графики I: Введение в генеративное искусство / Programming Graphics I: Introduction to Generative Art (2014) PCRec [H.264 / 720p] скачать через торрент бесплатно

    Опубликовал: Админ | Дата: 12-10-2015, 04:01 | Просмотров: 192

    Автор (режиссер): Джошуа Дэвис/Joshua Davis
    Жанр: Программирование, Генеративное искусство

    Описание

    Этот курс для всех, кто интересуется генеративным искусством и программированием.
    Даже если вы профи в Processing, вы познакомитесь с HYPE Framework и увидите как это ускорит ваш рабочий процесс, и возможно, покажет новые направления в творчестве.
    Продолжительность: 06: 35: 12
    Качество видео: PCRec
    Видео: AVC/H.264, 1280х720, ~2018 Kbps
    Аудио: AAC, 2 ch, 128 Kbps, CBR
    Код:

    General
    Complete name : C:TorrentsProgramming Graphics I - Introduction to Generative Art2 Intro to Processing and HYPE0 Introduction Processing and HYPE.mp4
    Format : MPEG-4
    Format profile : Base Media/Version 2
    Codec ID : mp42
    File size : 22.1 MiB
    Duration : 1mn 27s
    Overall bit rate mode : Variable
    Overall bit rate : 2 131 Kbps
    Movie name : 01 Introduction Processing and HYPE
    Encoded date : UTC 2014-08-02 16:41:10
    Tagged date : UTC 2014-08-02 16:41:33
    Video
    ID : 2
    Format : AVC
    Format/Info : Advanced Video Codec
    Format profile :High@L3.1
    Format settings, CABAC : No
    Format settings, ReFrames : 2 frames
    Format settings, GOP : M=2, N=30
    Codec ID : avc1
    Codec ID/Info : Advanced Video Coding
    Duration : 1mn 27s
    Bit rate mode : Variable
    Bit rate : 2 018 Kbps
    Maximum bit rate : 768 Kbps
    Width : 1 280 pixels
    Height : 720 pixels
    Display aspect ratio : 16:9
    Frame rate mode : Constant
    Frame rate : 30.000 fps
    Original frame rate : 25.000 fps
    Color space : YUV
    Chroma subsampling : 4:2:0
    Bit depth : 8 bits
    Scan type : Progressive
    Bits/(Pixel*Frame) : 0.073
    Stream size : 20.9 MiB (95%)
    Title : Core Media Video
    Encoded date : UTC 2014-08-02 16:41:10
    Tagged date : UTC 2014-08-02 16:41:33
    Color primaries : BT.709
    Transfer characteristics : BT.709
    Matrix coefficients : BT.709
    Audio
    ID : 1
    Format : AAC
    Format/Info : Advanced Audio Codec
    Format profile : LC
    Codec ID : 40
    Duration : 1mn 27s
    Source duration : 1mn 27s
    Bit rate mode : Constant
    Bit rate : 109 Kbps
    Nominal bit rate : 128 Kbps
    Channel(s) : 2 channels
    Channel positions : Front: L R
    Sampling rate : 44.1 KHz
    Compression mode : Lossy
    Stream size : 1.13 MiB (5%)
    Source stream size : 1.13 MiB (5%)
    Title : Core Media Audio
    Language : Russian
    Encoded date : UTC 2014-08-02 16:41:10
    Tagged date : UTC 2014-08-02 16:41:33


    Скриншоты для ознакомления




    Джошуа Дэвис | Программирование графики I: Введение в генеративное искусство/Programming Graphics I: Introduction to Generative Art (2014) PCRec [H.264/720p]
    загрузка...
    Рейтинг →
     (голосов: 1, оценка 5/5, голосовать можно 1 раз )

    Другие торренты по теме:

  • Дерево Джошуа / Joshua Tree (1993) BDRip [1080p] скачать через торрент бесплатно
  • Дональд Гамильтон, Дэвид Джонсон | Дерево Джошуа. Группа ликвидации [Сборник] (1995) [FB2]
  • Джошуа Глейзер, Санджай Мадхав | Многопользовательские игры. Разработка сетевых приложений (2017) [PDF]
  • Дерево Джошуа / Joshua Tree (Theatrical Cut) (1993) BDRip [H.264 / 1080р]
  • Джошуа Фоер | Эйнштейн гуляет по Луне. Наука и искусство запоминания (2013) [EPUB, FB2, MOBI]
  • Дерево Джошуа / Joshua Tree (Theatrical Cut) (1993) BDRip [H.264 / 720р]
  • Бокс. Энтони Джошуа - Владимир Кличко (29.04.2017) HDTVRip [H.264 / 720p-LQ] [UKR,EN]
  • Джошуа Феррис | Безымянное (2017) [MP3]


    • Комментарии (0):

      Информация

      Информация

        Посетители, находящиеся в группе Гости, не могут оставлять комментарии в данной новости.

        ↓ Меню




        ↓ Опрос

        Вы добавили сайт в закладки?
        Да
        Нет


        Top 10 за месяц (Книги)

        Джиллиан Майклз | Знаменитая программа Джиллиан Майклз: Стройное и здоровое тело за 30 дней (2016) [FB2]

        (скачиваний: 62)
        И.Б. Фефилова | Антивозрастная медицина. Современная энциклопедия (2015) [PDF, EPUB]

        (скачиваний: 31)
        Михаил Диденко | Русский стиль выживания. Как остаться в живых одному в лесу (2017) [PDF, FB2]

        (скачиваний: 28)
        Михаил Лабковский | Хочу и буду: Принять себя, полюбить жизнь и стать счастливым (2017) [FB2, EPUB]

        (скачиваний: 25)
        Александр Клинге | Ленин. Самая правдивая биография Ильича (2017) [FB2, EPUB]

        (скачиваний: 23)
        Евгений Старухин | Цикл «Лесовик» [4 книги. Обновляемая] (2015-2017) [FB2]

        (скачиваний: 23)
        Джек Дэниелс | От 800 метров до марафона (2014) [FB2]

        (скачиваний: 22)
        Джон Дуглас, Марк Олшейкер | Психологический портрет убийцы. Методики ФБР (2016) [FB2, EPUB]

        (скачиваний: 22)
        Давид Дубницкий | Жанровый НЮ-портрет (2016) PCRec

        (скачиваний: 21)
        Майкл Грегер | Не сдохни! Еда в борьбе за жизнь (2017) [PDF]

        (скачиваний: 20)