.
Авторизация | Регистрация
Хочешь лучшие торренты? Добавь свой email!
Добавить

Торрент скачать бесплатно

» » Сергей Жарченков, Вероника Иволжатова | Профессия копирайтер: от стажера до директора (2015) PCRec [H.264 / 720p] скачать через торрент бесплатно




    Сергей Жарченков, Вероника Иволжатова | Профессия копирайтер: от стажера до директора (2015) PCRec [H.264 / 720p] скачать через торрент бесплатно

    Опубликовал: Админ | Дата: 11-10-2015, 04:11 | Просмотров: 111

    Автор (режиссер): Сергей Жарченков, Вероника Иволжатова
    Жанр: Бизнес

    Описание

    Получи новую профессию пройдя видеокурс Профессия копирайтер: от стажера до директора и начни свой путь в рекламе, маркетинге или собственном бизнесе.
    Для кого этот курс?
    -Для тех, кто хочет освоить новую профессию, попасть в сферу рекламы и маркетинга
    -Для начинающих копирайтеров, кто хочет повысить свои навыки и вырасти по карьерной лестнице
    -Для предпринимателей, которые хотят увеличить продажи с помощью эффективных текстов, а также научиться отбирать и оценивать копирайтеров
    Копирайтинг — это набор навыков, доступных каждому
    1. Самое интересное в это истории, что об этом Валуев ничего не знал. Писать
    Чтобы начать писать продающие тексты, нужно изучить набор базовых принципов и правил, несколько моделей и рекомендаций признанных экспертов.
    2. Продавать
    Сложно ли начать продавать? Нет, если вы хорошо знаете, что продаете, кому продаете, и зачем этим людям ваш товар.
    3. Думать
    Умение анализировать информацию, задавать правильные вопросы, разбираться в причинах и следствиях, искать удачные идеи и применять их в своих текстах – все это приходит с практикой, достаточно только начать.
    Продолжительность: 22: 00: 00
    Качество видео: PCRec
    Видео: AVC/H.264, 1280x720, ~295 Kbps
    Аудио: AAC, 2 ch, 32.5 Kbps, CBR
    Код:

    General
    Complete name : C:UsersAcerDesktopTorrentПрофессия копирайтер от стажера до директора (2015)День 6copywriting_day6.mp4
    Format : MPEG-4
    Format profile : Base Media
    Codec ID : isom
    File size : 241 MiB
    Duration : 1h 41mn
    Overall bit rate mode : Variable
    Overall bit rate : 330 Kbps
    Video
    ID : 1
    Format : AVC
    Format/Info : Advanced Video Codec
    Format profile :High@L3.1
    Format settings, CABAC : Yes
    Format settings, ReFrames : 5 frames
    Format settings, GOP : N=7
    Codec ID : avc1
    Codec ID/Info : Advanced Video Coding
    Duration : 1h 41mn
    Bit rate : 295 Kbps
    Nominal bit rate : 524 Kbps
    Width : 1 280 pixels
    Height : 720 pixels
    Display aspect ratio : 16:9
    Frame rate mode : Variable
    Frame rate : 15.000 fps
    Minimum frame rate : 7.500 fps
    Maximum frame rate : 15.000 fps
    Color space : YUV
    Chroma subsampling : 4:2:0
    Bit depth : 8 bits
    Scan type : Progressive
    Bits/(Pixel*Frame) : 0.021
    Stream size : 215 MiB (89%)
    Writing library : x264 core 142 r2479 dd79a61
    Audio
    ID : 2
    Format : AAC
    Format/Info : Advanced Audio Codec
    Format profile : LC
    Codec ID : 40
    Duration : 1h 41mn
    Bit rate mode : Variable
    Bit rate : 32.5 Kbps
    Channel(s) : 2 channels
    Channel(s)_Original : 1 channel
    Channel positions : Front: C
    Sampling rate : 22.05 KHz
    Compression mode : Lossy
    Stream size : 23.7 MiB (10%)


    Скриншоты для ознакомления




    Сергей Жарченков, Вероника Иволжатова | Профессия копирайтер: от стажера до директора (2015) PCRec [H.264/720p]
    загрузка...
    Рейтинг →
     (голосов: 1, оценка 5/5, голосовать можно 1 раз )

    Другие торренты по теме:

  • Сергей Жарченков | Копирайтинг. Интенсив (2016) WEBRip [H.264]


    • Комментарии (0):

      Информация

      Информация

        Посетители, находящиеся в группе Гости, не могут оставлять комментарии в данной новости.

        ↓ Меню




        ↓ Опрос

        Вы добавили сайт в закладки?
        Да
        Нет


        Top 10 за месяц (Книги)

        Джиллиан Майклз | Знаменитая программа Джиллиан Майклз: Стройное и здоровое тело за 30 дней (2016) [FB2]

        (скачиваний: 62)
        И.Б. Фефилова | Антивозрастная медицина. Современная энциклопедия (2015) [PDF, EPUB]

        (скачиваний: 31)
        Михаил Диденко | Русский стиль выживания. Как остаться в живых одному в лесу (2017) [PDF, FB2]

        (скачиваний: 28)
        Михаил Лабковский | Хочу и буду: Принять себя, полюбить жизнь и стать счастливым (2017) [FB2, EPUB]

        (скачиваний: 25)
        Александр Клинге | Ленин. Самая правдивая биография Ильича (2017) [FB2, EPUB]

        (скачиваний: 23)
        Евгений Старухин | Цикл «Лесовик» [4 книги. Обновляемая] (2015-2017) [FB2]

        (скачиваний: 23)
        Джек Дэниелс | От 800 метров до марафона (2014) [FB2]

        (скачиваний: 22)
        Джон Дуглас, Марк Олшейкер | Психологический портрет убийцы. Методики ФБР (2016) [FB2, EPUB]

        (скачиваний: 22)
        Давид Дубницкий | Жанровый НЮ-портрет (2016) PCRec

        (скачиваний: 21)
        Майкл Грегер | Не сдохни! Еда в борьбе за жизнь (2017) [PDF]

        (скачиваний: 20)