.
Авторизация | Регистрация
Хочешь лучшие торренты? Добавь свой email!
Добавить

Торрент скачать бесплатно

» » Михаил Бычков | Супер Моушн (2015) PCRec [H.264 / 1080p] скачать через торрент бесплатно




    Михаил Бычков | Супер Моушн (2015) PCRec [H.264 / 1080p] скачать через торрент бесплатно

    Опубликовал: Админ | Дата: 7-10-2015, 04:01 | Просмотров: 991

    Автор (режиссер): Михаил Бычков
    Жанр: After Effects

    Описание

    Супер Моушн - это первый полноценный обучающий курс по 2D моушн-дизайну на русском! Моушн-дизайн -это графика в движении.
    На сегодняшний день он используется практически везде: примеры этого вида искусства вы можете увидеть в титрах к фильмам, рекламе, на веб-сайтах и т.д. Давайте, познакомимся с ним поближе и научимся создавать некоторые эффекты. Motion Design(Motion Graphics Design)—это искусства оживления графики средствами анимации. Разница между анимацией и моушн-дизайном в том, анимационный фильм представляет историю в которой каждый персонаж имеет собственный характер, а в моушн-дизайне персонажы не имеет характера и никак себя не позиционируют.В последнее время он набирает все большей популярности.
    Такие видеоролики получаются простыми для восприятия и при этом очень стильными. Благодаря этим качествам, 2D моушн-графика стала очень популярна в интернете. При помощи 2D моушн-графики вы можете создать стильную вступительную заставку с логотипом к своему видео. Самое интересное в это истории, что об этом Евросоюз ничего не знал. Такие заставки часто используют видеоблоггеры на YouTube. 2D моушн-графика поможет вам создать красивую презентацию любой сложности, включая анимированные цифры, графики, диаграммы, текст и есть не что иное инфографику. Хотите создать рекламный или промо ролик? 2D моушн-графика поможет вам в этом! Этот видеокурс разрабатывался таким образом, чтобы быть максимально полезным и простым для освоения новичкам. Но при этом, курс Супер Моушн будет также интересен и более продвинутым пользователям After Effects.
    Продолжительность: 28: 00: 00
    Качество видео: PCRec
    Видео: AVC/H.264, 1920x1080, ~1200 kbps
    Аудио: AAC, 2 ch, 126 kbps, CBR
    Код:

    Общее
    Формат : MPEG-4
    Профиль формата : Base Media
    Идентификатор кодека : isom
    Размер файла : 9, 70 Мбайт
    Продолжительность : 59 с.
    Режим общего битрейта : Переменный
    Общий поток : 1366 Кбит/сек
    Дата кодирования : UTC 2015-09-13 16:55:40
    Дата пометки : UTC 2015-09-13 16:55:40
    Программа кодирования : FormatFactory :www.pcfreetime.com
    Видео
    Идентификатор : 1
    Формат : AVC
    Формат/Информация : Advanced Video Codec
    Профиль формата : High@L3
    Параметр CABAC формата : Нет
    Параметр ReFrames формата : 1 кадр
    Идентификатор кодека : avc1
    Идентификатор кодека/Информация : Advanced Video Coding
    Продолжительность : 59 с.
    Битрейт : 1200 Кбит/сек
    Максимальный битрейт : 3311 Кбит/сек
    Ширина : 1920 пикселей
    Высота : 1080 пикселей
    Соотношение сторон : 16:9
    Режим частоты кадров : Постоянный
    Частота кадров : 25, 000 кадров/сек
    Цветовое пространство : YUV
    Субдискретизация насыщенности : 4:2:0
    Битовая глубина : 8 бит
    Тип развёртки : Прогрессивная
    Бит/(Пиксели*Кадры) : 0.023
    Размер потока : 8, 79 Мбайт (91%)
    Библиотека кодирования : x264 core 116 r2019 9cc407d
    Настройки программы : cabac=0/ref=1/deblock=1:0:0/analyse=0x3:0x113/me=hex/subme=7/psy=1/psy_rd=1.00:0.00/mixed_ref=0/me_range=16/chroma_me=1/trellis=1/8x8dct=1/cqm=0/deadzone=21, 11/fast_pskip=1/chroma_qp_offset=-2/threads=12/sliced_threads=0/nr=0/decimate=1/interlaced=0/bluray_compat=0/constrained_intra=0/bframes=0/weightp=2/keyint=250/keyint_min=25/scenecut=40/intra_refresh=0/rc_lookahead=40/rc=2pass/mbtree=1/bitrate=1200/ratetol=1.0/qcomp=0.60/qpmin=0/qpmax=69/qpstep=4/cplxblur=20.0/qblur=0.5/ip_ratio=1.40/aq=1:1.00
    Дата кодирования : UTC 2015-09-13 16:55:40
    Дата пометки : UTC 2015-09-13 16:55:40
    Аудио
    Идентификатор : 2
    Формат : AAC
    Формат/Информация : Advanced Audio Codec
    Профиль формата : LC
    Идентификатор кодека : 40
    Продолжительность : 59 с.
    Вид битрейта : Переменный
    Битрейт : 126 Кбит/сек
    Максимальный битрейт : 245 Кбит/сек
    Каналы : 2 канала
    Расположение каналов : Front: L R
    Частота : 44, 1 КГц
    Метод сжатия : С потерями
    Размер потока : 913 Кбайт (9%)
    Дата кодирования : UTC 2015-09-13 16:55:40
    Дата пометки : UTC 2015-09-13 16:55:40


    Скриншоты для ознакомления




    Михаил Бычков | Супер Моушн (2015) PCRec [H.264/1080p]
    загрузка...
    Рейтинг →
     (голосов: 1, оценка 5/5, голосовать можно 1 раз )

    Другие торренты по теме:

  • Михаил Эпштейн | От знания - к творчеству. Как гуманитарные науки могут изменять мир (2016) [PDF]
  • Михаил Задорнов | Концерты, монологи и др. [Сборник] (1990-2016) [MP3]
  • Михаил Задорнов | НеФормат с Михаилом Задорновым (2017) [FB2]
  • Михаил Ланцов | Прапорщик драконьей кавалерии (2017) [FB2]
  • Михаил Шелег - На перекрёстке (2005) [FLAC|Lossless|image + .cue]<Шансон>
  • Михаил Задорнов. Неформат 62 (Путин болен раком! Михаил Задорнов - персона нон грата в Украине!) (2014.10.31) WEB-DLRip
  • Михаил Задорнов. Неформат 53 (Футбол, порно, многомандатники, Обама, Рюрик, Вещий Олег) (2014.07.11) WEB-DLRip
  • Михаил Задорнов. Неформат 54 (О смешном и грустном) (2014.07.18) WEB-DLRip


    • Комментарии (0):

      Информация

      Информация

        Посетители, находящиеся в группе Гости, не могут оставлять комментарии в данной новости.

        ↓ Меню




        ↓ Опрос

        Вы добавили сайт в закладки?
        Да
        Нет


        Top 10 за месяц (Книги)

        Андрей Сазонов | Мифы о нашем теле. Научный подход к примитивным вопросам (2017) [FB2]

        (скачиваний: 29)
        Элла Берту, Сьюзен Элдеркин | Книга как лекарство. Скорая литературная помощь от А до Я (2016) [FB2, EPUB]

        (скачиваний: 25)
        Оуэйн Сервис, Рори Галлахер | Начинай с малого. Научно доказанная система достижения больших целей (2018) [PDF, FB2, EPUB]

        (скачиваний: 22)
        Григорий-Азиз | Фишки Ворда и Экселя [Word and Excel] (2017) PCRec [H.264]

        (скачиваний: 21)
        Юрий Подольский | Делаем сами коптильни, грили, мангалы, уличные печи (2017) [PDF, FB2, EPUB]

        (скачиваний: 21)
        Дмитрий Петров, Алексей Кржижевский | Серия: Полиглот. Выучим иностранный язык за 16 часов [5 книг] (2014-2015) [PDF, DJVU]

        (скачиваний: 20)
        Кевин Келли | Неизбежно. 12 технологических трендов, которые определяют наше будущее (2017) [PDF, EPUB, MOBI]

        (скачиваний: 20)
        Юрий Морозов | Ремонт дачного дома своими руками. Полное руководство (2017) [PDF]

        (скачиваний: 20)
        Наталья Корикова | Полезные и вкусные бутерброды. Алгоритм приготовления и рецепты (2017) [PDF]

        (скачиваний: 19)
        Екатерина Юша | Графоман или писатель Пишем свою первую книгу (2017) [FB2, EPUB]

        (скачиваний: 18)