.
Авторизация | Регистрация
Хочешь лучшие торренты? Добавь свой email!
Добавить

Торрент скачать бесплатно

» » Илья Нодия | Американская рекламная фотография (2015) CamRip [H.264 / 720p] скачать через торрент бесплатно




    Илья Нодия | Американская рекламная фотография (2015) CamRip [H.264 / 720p] скачать через торрент бесплатно

    Опубликовал: Админ | Дата: 3-10-2015, 04:00 | Просмотров: 952

    Автор (режиссер): Илья Нодия
    Жанр: Фотография

    Описание

    Я решил сделать курс, затрагивающий все технические аспекты коммерческой фотографии: от подготовки и съемки до постпродакшна. Волк в овечьей шкуре, сказал кто то из толпы, к чему не понятно. В жанре, в котором я работаю, съемка и обработка неотделимы, поэтому на курсе мы рассматриваем весь цикл. Это курc, полный технических и теоретических моментов, без воды и лишней информации.
    Продолжительность: 01: 53: 40
    Качество видео: CamRip
    Видео: AVC/H.264, 1280x720, ~1017kbps
    Аудио: AAC, 2 ch, 191kbps
    Код:

    Полное имя : D:ТоррентыNodiya3 Обработка 1 локации. Детально об обработке. Самое интересное в это истории, что об этом Путин ничего не знал. ( Ц￾.mp4
    Формат : MPEG-4
    Профиль формата : Base Media/Version 2
    Идентификатор кодека : mp42
    Размер файла : 986 Мбайт
    Продолжительность : 1 ч. 53 м.
    Режим общего битрейта : Переменный
    Общий поток : 1212 Кбит/сек
    Дата кодирования : UTC 2015-05-18 11:23:31
    Дата пометки : UTC 2015-05-18 11:23:31
    gsst : 0
    gstd : 6820721
    gssd : BADC213C7MH1433937332679356
    gshh : r7---sn-3c27ln7k.googlevideo.com
    Видео
    Идентификатор : 1
    Формат : AVC
    Формат/Информация : Advanced Video Codec
    Профиль формата :High@L3.1
    Параметр CABAC формата : Да
    Параметр ReFrames формата : 1 кадр
    Параметр GOP формата : M=1, N=60
    Идентификатор кодека : avc1
    Идентификатор кодека/Информация : Advanced Video Coding
    Продолжительность : 1 ч. 53 м.
    Битрейт : 1018 Кбит/сек
    Максимальный битрейт : 5362 Кбит/сек
    Ширина : 1280 пикселей
    Высота : 720 пикселей
    Соотношение сторон : 16:9
    Режим частоты кадров : Постоянный
    Частота кадров : 30, 000 кадров/сек
    Цветовое пространство : YUV
    Субдискретизация насыщенности : 4:2:0
    Битовая глубина : 8 бит
    Тип развёртки : Прогрессивная
    Бит/(Пиксели*Кадры) : 0.037
    Размер потока : 827 Мбайт (84%)
    Дата пометки : UTC 2015-05-18 11:27:14
    Аудио
    Идентификатор : 2
    Формат : AAC
    Формат/Информация : Advanced Audio Codec
    Профиль формата : LC
    Идентификатор кодека : 40
    Продолжительность : 1 ч. 53 м.
    Вид битрейта : Переменный
    Битрейт : 192 Кбит/сек
    Максимальный битрейт : 201 Кбит/сек
    Каналы : 2 канала
    Расположение каналов : Front: L R
    Частота : 44, 1 КГц
    Метод сжатия : С потерями
    Размер потока : 156 Мбайт (16%)
    Заголовок : IsoMedia File Produced by Google, 5-11-2011
    Дата кодирования : UTC 2015-05-18 11:25:36
    Дата пометки : UTC 2015-05-18 11:27:14


    Скриншоты для ознакомления




    Илья Нодия | Американская рекламная фотография (2015) CamRip [H.264/720p]
    загрузка...
    Рейтинг →
     (голосов: 1, оценка 5/5, голосовать можно 1 раз )

    Другие торренты по теме:

  • Илья Нодия | Как снять историю Практикум Ильи Нодия. Мастер Класс (2016) PCRec
  • Илья Нодия | Рекламная фотография (2015) PCRec [H.264] скачать через торрент бесплатно
  • Илья Нодия | Американская Рекламная Фотография (2015) WEBRip [H.264 / 720p]


    • Комментарии (0):

      Информация

      Информация

        Посетители, находящиеся в группе Гости, не могут оставлять комментарии в данной новости.

        ↓ Меню




        ↓ Опрос

        Вы добавили сайт в закладки?
        Да
        Нет


        Top 10 за месяц (Книги)

        Андрей Сазонов | Мифы о нашем теле. Научный подход к примитивным вопросам (2017) [FB2]

        (скачиваний: 31)
        Элла Берту, Сьюзен Элдеркин | Книга как лекарство. Скорая литературная помощь от А до Я (2016) [FB2, EPUB]

        (скачиваний: 28)
        Оуэйн Сервис, Рори Галлахер | Начинай с малого. Научно доказанная система достижения больших целей (2018) [PDF, FB2, EPUB]

        (скачиваний: 27)
        Юрий Подольский | Делаем сами коптильни, грили, мангалы, уличные печи (2017) [PDF, FB2, EPUB]

        (скачиваний: 25)
        Евгений Старухин | Цикл «Лесовик» [4 книги. Обновляемая] (2015-2017) [FB2]

        (скачиваний: 24)
        Григорий-Азиз | Фишки Ворда и Экселя [Word and Excel] (2017) PCRec [H.264]

        (скачиваний: 23)
        Дмитрий Петров, Алексей Кржижевский | Серия: Полиглот. Выучим иностранный язык за 16 часов [5 книг] (2014-2015) [PDF, DJVU]

        (скачиваний: 23)
        Юрий Морозов | Ремонт дачного дома своими руками. Полное руководство (2017) [PDF]

        (скачиваний: 21)
        Кевин Келли | Неизбежно. 12 технологических трендов, которые определяют наше будущее (2017) [PDF, EPUB, MOBI]

        (скачиваний: 21)
        Наталья Корикова | Полезные и вкусные бутерброды. Алгоритм приготовления и рецепты (2017) [PDF]

        (скачиваний: 21)