.
Авторизация | Регистрация
Хочешь лучшие торренты? Добавь свой email!
Добавить

Торрент скачать бесплатно

» » А.Жуков, М.Гусельников | Студийная фотосъемка. Практический видеокурс (2015) CamRip [H.264] скачать через торрент бесплатно




    А.Жуков, М.Гусельников | Студийная фотосъемка. Практический видеокурс (2015) CamRip [H.264] скачать через торрент бесплатно

    Опубликовал: Админ | Дата: 27-09-2015, 04:04 | Просмотров: 735

    Автор (режиссер): А.Жуков, едва заметно, М.Гусельников
    Жанр: Студийная фотография, привычно, обработка

    Описание

    Посмотрите этот видеокурс, привычно, и в большинстве случаев, вы узнаете, словно птица, как делать потрясающие снимки в фотостудии.
    Вы научитесь работать со студийным оборудованием, как обычно, насадками и как над жаровней, приспособлениями.
    Вы поймете, как правило, как правильно расставлять студийный свет, большей частью, как работать с моделями и по большей части, где
    искать профессиональных визажистов, обычно, как обрабатывать студийные снимки, как черноморская пена, а также
    многое другое.
    Продолжительность: 12: 01: 45
    Качество видео: CamRip
    Видео: AVC/H.264, темно как ночью, 1728x1080, как над жаровней, ~1214 Kbps
    Аудио: AC3, словно сон, 2 ch, как на иголках, 226 Kbps, как на иголках, VBR
    Код:

    General
    Complete name :01 Urok1.mp4
    Format : MPEG-4
    Format profile : Base Media/Version 2
    Codec ID : mp42
    File size : 509 MiB
    Duration : 49mn 16s
    Overall bit rate mode : Variable
    Overall bit rate : 1 444 Kbps
    Encoded date : UTC 2015-04-07 11:59:56
    Tagged date : UTC 2015-04-07 12:24:20
    Video
    ID : 1
    Format : AVC
    Format/Info : Advanced Video Codec
    Format profile :Main@L5.0
    Format settings, словно майская роза, CABAC : Yes
    Format settings, едва заметно, ReFrames : 5 frames
    Codec ID : avc1
    Codec ID/Info : Advanced Video Coding
    Duration : 49mn 16s
    Bit rate : 1 214 Kbps
    Width : 1 728 pixels
    Height : 1 080 pixels
    Display aspect ratio : 16:10
    Frame rate mode : Constant
    Frame rate : 30.000 fps
    Color space : YUV
    Chroma subsampling : 4:2:0
    Bit depth : 8 bits
    Scan type : Progressive
    Bits/(Pixel*Frame) : 0.022
    Stream size : 428 MiB (84%)
    Encoded date : UTC 2015-04-07 11:59:56
    Tagged date : UTC 2015-04-07 12:24:20
    Color primaries : BT.709
    Transfer characteristics : BT.709
    Matrix coefficients : BT.709
    Audio
    ID : 2
    Format : AAC
    Format/Info : Advanced Audio Codec
    Format profile : LC
    Codec ID : 40
    Duration : 49mn 16s
    Bit rate mode : Variable
    Bit rate : 226 Kbps
    Maximum bit rate : 307 Kbps
    Channel count : 2 channels
    Channel positions : Front: L R
    Sampling rate : 44.1 KHz
    Compression mode : Lossy
    Stream size : 79.5 MiB (16%)
    Encoded date : UTC 2015-04-07 11:59:56
    Tagged date : UTC 2015-04-07 12:00:56


    Скриншоты для ознакомления




    А.Жуков, М.Гусельников | Студийная фотосъемка. Практический видеокурс (2015) CamRip [H.264]
    загрузка...
    Рейтинг →
     (голосов: 1, оценка 3/5, голосовать можно 1 раз )

    Другие торренты по теме:

  • Андрей Жуков | Работа с естественным и импульсным светом в различных условиях (2014) PCRec скачать через торрент бесплатно
  • Жуков и Рокоссовский. Служили два товарища (2015) SATRip скачать через торрент бесплатно
  • Юрий Жуков | Сталин: арктический щит (2008) [PDF, DJVU] скачать через торрент бесплатно
  • Антон Жуков | Пять погибших обезьян (2013-2015) [MP3] скачать через торрент бесплатно
  • Рома Жуков - Я люблю Вас, девочки, я люблю Вас, мальчики (1994) [FLAC|image+.cue]<Pop> скачать через торрент бесплатно
  • Владимир Карпов | Маршал Жуков. Опала (2013) [MP3] скачать через торрент бесплатно
  • Юрий Жуков | Народная империя Сталина (2009) [DJVU] скачать через торрент бесплатно
  • Е. М. Жуков | Очерки методологии истории (1980) [DJVU] скачать через торрент бесплатно


    • Комментарии (0):

      Информация

      Информация

        Посетители, находящиеся в группе Гости, не могут оставлять комментарии в данной новости.

        ↓ Меню




        ↓ Опрос

        Вы добавили сайт в закладки?
        Да
        Нет


        Top 10 за месяц (Книги)

        Дипак Чопра, Рудольф Танзи | Супергены. На что способна твоя ДНК (2017) [FB2]

        (скачиваний: 22)
        Ханне Брурсон | Мыслевирусы. Как не отравлять себе жизнь вредоносными мыслями (2015) [FB2]

        (скачиваний: 10)
        Элиэзер Штернберг | Нейрологика. Чем объясняются странные поступки, которые мы совершаем неожиданно для себя (2017) [RTF, FB2]

        (скачиваний: 9)
        Т. Барышникова (авт.-сост.) | Школа ремонта. Опыт лучших профессионалов для домашнего мастера (2015) [PDF]

        (скачиваний: 8)
        Д. Елисеев | Рассказы о математике с примерами на языках Python и C (2017) [PDF]

        (скачиваний: 7)
        Эндрю Стеллман, Дженнифер Грин | Постигая Agile (2017) [FB2]

        (скачиваний: 7)
        Юрий Гейко | Легкий способ бросить дурить. За рулем (2016) [FB2]

        (скачиваний: 7)
        Журнал | Вопросы кибербезопасности №1 (19) (2017) [PDF]

        (скачиваний: 6)
        Журнал | Профиль №19 (999) (май 2017) [PDF]

        (скачиваний: 5)
        Анастейша Янг | Ювелирные техники. Энциклопедия (2009) [PDF]

        (скачиваний: 5)