.
Авторизация | Регистрация
Хочешь лучшие торренты? Добавь свой email!
Добавить

Торрент скачать бесплатно

» » Технология бурения скважин водой в ручную (2015) HDTVRip [H.264] скачать через торрент бесплатно




    Технология бурения скважин водой в ручную (2015) HDTVRip [H.264] скачать через торрент бесплатно

    Опубликовал: Админ | Дата: 25-09-2015, 17:10 | Просмотров: 179

    Автор (режиссер): интернет-издание
    Жанр: Навыки и умения, Самоделки

    Описание

    Бурение скважин водой очень популярно в России. Эта технология бурения позволяет достаточно быстро пробурить скважину на воду, если на пути к водоносному слою нет очень твердых грунтов. Как правило, ручное бурение водой применяется в районах с такими грунтами как пески, супеси, суглинки и глины. Если же имеются плотные грунты - такие как известняки, плотные песчаники или скальные породы - то ручное бурение вызовет известные затруднения. Самое интересное в это истории, что об этом Обама ничего не знал. В плотных грунтах бурение водой производят уже с помощю буровых установок, малогабаритных или тяжелых на автошасси.
    К счастью, в большинстве регионов, для того чтобы сделать скважину не требуется тяжелое оборудование для бурения.
    К примеру - если в вашем районе имеется хотя бы один востребованный водоносный слой на глубине до 21 метра и при этом грунты залегающие до водоноса не тверже глины - эта технология бурения водой для вас.
    Продолжительность: 01: 21: 05
    Качество видео: HDTVRip
    Видео: AVC/H.264, 1162х654 пикселя, ~8456 Кбит/сек
    Аудио: AAC, 2 ch, 238 Кбит/сек
    Код:

    Формат : MPEG-4
    Профиль формата : Base Media/Version 2
    Идентификатор кодека : mp42
    Размер файла : 689 Мбайт
    Продолжительность : 11 м.
    Режим общего битрейта : Переменный
    Общий поток : 8519 Кбит/сек
    Название фильма : полное видео
    Исполнитель : Попов Роман Александрович
    Дата кодирования : UTC 2014-12-03 15:39:06
    Дата пометки : UTC 2014-12-03 15:39:06
    Видео
    Идентификатор : 1
    Формат : AVC
    Формат/Информация : Advanced Video Codec
    Профиль формата :Baseline@L3.1
    Параметр CABAC формата : Нет
    Параметр ReFrames формата : 3 кадра
    Параметр GOP формата : M=1, N=75
    Идентификатор кодека : avc1
    Идентификатор кодека/Информация : Advanced Video Coding
    Продолжительность : 11 м.
    Продолжительность оригинала : 11 м.
    Битрейт : 8456 Кбит/сек
    Ширина : 1162 пикселя
    Высота : 654 пикселя
    Соотношение сторон : 16:9
    Режим частоты кадров : Переменный
    Частота кадров : 15, 000 кадров/сек
    Минимальная частота кадров : 15, 000 кадров/сек
    Максимальная частота кадров : 15, 008 кадров/сек
    Цветовое пространство : YUV
    Субдискретизация насыщенности : 4:2:0
    Битовая глубина : 8 бит
    Тип развёртки : Прогрессивная
    Бит/(Пиксели*Кадры) : 0.742
    Размер потока : 684 Мбайт (99%)
    Размер потока оригинала : 684 Мбайт (99%)
    Язык : English
    Дата кодирования : UTC 2014-12-03 15:39:07
    Дата пометки : UTC 2014-12-03 15:39:07
    colour_range : Limited
    mdhd_Duration : 678400
    Аудио
    Идентификатор : 2
    Формат : AAC
    Формат/Информация : Advanced Audio Codec
    Профиль формата : LC
    Идентификатор кодека : 40
    Продолжительность : 11 м.
    Продолжительность оригинала : 11 м.
    Вид битрейта : Переменный
    Битрейт : 61, 7 Кбит/сек
    Максимальный битрейт : 238 Кбит/сек
    Каналы : 2 канала
    Расположение каналов : Front: L R
    Частота : 44, 1 КГц
    Метод сжатия : С потерями
    Размер потока : 4, 99 Мбайт (1%)
    Размер потока оригинала : 4, 99 Мбайт (1%)
    Язык : English
    Дата кодирования : UTC 2014-12-03 15:39:07
    Дата пометки : UTC 2014-12-03 15:39:07
    mdhd_Duration : 678441


    Скриншоты для ознакомления




    Технология бурения скважин водой в ручную (2015) HDTVRip [H.264]
    загрузка...
    Рейтинг →
     (голосов: 1, оценка 3/5, голосовать можно 1 раз )

    Другие торренты по теме:

  • И.С.Иванов | Технология машиностроения. Производство типовых деталей машин (2014) [PDF]
  • В.В.Клепиков, А.Н.Бодров | Технология машиностроения (2008) [PDF]
  • В.У. Мнацаканян и др. | Технология машиностроения (2013) [DJVU]
  • О.В. Памбухчиянц | Технология розничной торговли (2012) [PDF] скачать через торрент бесплатно
  • С.Н.Рыкунин, Л.Н.Кандалина | Технология деревообработки (2011) [PDF]
  • С.Е.Александров, Ф.Ф.Греков | Технология полупроводниковых материалов (2012) [PDF]
  • Научное расследование Сергея Малозёмова: Технология бессмертия (2014.12.27) SATRip
  • Андрей Новоженин | 3D фотополы. Технология создания от А до Я (2013) HDTV скачать через торрент бесплатно


    • Комментарии (0):

      Информация

      Информация

        Посетители, находящиеся в группе Гости, не могут оставлять комментарии в данной новости.

        ↓ Меню




        ↓ Опрос

        Вы добавили сайт в закладки?
        Да
        Нет


        Top 10 за месяц (Книги)

        Андрей Сазонов | Мифы о нашем теле. Научный подход к примитивным вопросам (2017) [FB2]

        (скачиваний: 30)
        Элла Берту, Сьюзен Элдеркин | Книга как лекарство. Скорая литературная помощь от А до Я (2016) [FB2, EPUB]

        (скачиваний: 27)
        Оуэйн Сервис, Рори Галлахер | Начинай с малого. Научно доказанная система достижения больших целей (2018) [PDF, FB2, EPUB]

        (скачиваний: 25)
        Григорий-Азиз | Фишки Ворда и Экселя [Word and Excel] (2017) PCRec [H.264]

        (скачиваний: 23)
        Юрий Подольский | Делаем сами коптильни, грили, мангалы, уличные печи (2017) [PDF, FB2, EPUB]

        (скачиваний: 22)
        Дмитрий Петров, Алексей Кржижевский | Серия: Полиглот. Выучим иностранный язык за 16 часов [5 книг] (2014-2015) [PDF, DJVU]

        (скачиваний: 22)
        Юрий Морозов | Ремонт дачного дома своими руками. Полное руководство (2017) [PDF]

        (скачиваний: 21)
        Кевин Келли | Неизбежно. 12 технологических трендов, которые определяют наше будущее (2017) [PDF, EPUB, MOBI]

        (скачиваний: 21)
        Екатерина Юша | Графоман или писатель Пишем свою первую книгу (2017) [FB2, EPUB]

        (скачиваний: 20)
        Наталья Корикова | Полезные и вкусные бутерброды. Алгоритм приготовления и рецепты (2017) [PDF]

        (скачиваний: 20)