.
Авторизация | Регистрация
Хочешь лучшие торренты? Добавь свой email!
Добавить

Торрент скачать бесплатно

» » Как научить ребенка плавать (2015) CamRip [H.264] скачать через торрент бесплатно




    Как научить ребенка плавать (2015) CamRip [H.264] скачать через торрент бесплатно

    Опубликовал: Админ | Дата: 21-09-2015, 04:01 | Просмотров: 120

    Автор (режиссер): Виктория Раз
    Жанр: Обучение плаванию

    Описание

    Видео-курс Как научить ребенка плавать от Виктории Раз (мастера спорта по синхронному плаванию, тренера по плаванию).
    Зачем вам учить ребенка плавать?
    Плавание делает тело гармонично развитым и координированным.
    В Древней Греции плавание было одним из трех основных видов физической подготовки, наряду с бегом и гимнастикой.
    *Улучшается внимание
    *Уходит стресс и зажатость
    *Расправляется спина
    *Укрепляются мышцы
    *Повышается выносливость
    Какие результаты вы получите:
    *Ребенок будет с радостью ходить в бассейн, плавать в море и купаться в ванной
    *Вы будете спокойны, что ребенок не утонет на глубине
    *Ребенок будет расти гармоничным, сильным, спокойным, уверенным
    *Вы будете гордится достижениями юного пловца
    *Ребенок будет cчастлив, что владеет телом в воде как рыбка
    *Вы даете правильную двигательную ребенку базу для последующего овладения спортивными стилями плавания
    Кому не подходит этот курс?
    *Тем, кто считает, что только тренер может научить ребенка
    *Тем, кто думает, что страх воды не победим
    *Тем, кто не хочет, чтобы ребенок научился плавать
    Продолжительность: 01: 59: 56
    Качество видео: CamRip
    Видео: AVC/H.264, 960x540, ~651 kbp
    Аудио: AAC, 2 ch, 128 kbps, CBR
    Код:

    Общее
    Формат : MPEG-4
    Профиль формата : Base Media/Version 2
    Идентификатор кодека : mp42
    Общий поток : 776 Кбит/сек
    Видео
    Идентификатор : 1
    Формат : AVC
    Формат/Информация : Advanced Video Codec
    Профиль формата :Main@L3.1
    Параметр CABAC формата : Нет
    Параметр ReFrames формата : 2 кадра
    Идентификатор кодека : avc1
    Идентификатор кодека/Информация : Advanced Video Coding
    Битрейт : 651 Кбит/сек
    Ширина : 960 пикселей
    Высота : 540 пикселей
    Соотношение сторон : 16:9
    Режим частоты кадров : Постоянный
    Частота кадров : 25, 000 кадров/сек
    Цветовое пространство : YUV
    Субдискретизация насыщенности : 4:2:0
    Битовая глубина : 8 бит
    Тип развёртки : Прогрессивная
    Бит/(Пиксели*Кадры) : 0.050
    Размер потока : 3, 23 Мбайт (84%)
    Размер потока оригинала : 3, 23 Мбайт (84%)
    Аудио
    Идентификатор : 2
    Формат : AAC
    Формат/Информация : Advanced Audio Codec
    Профиль формата : LC
    Идентификатор кодека : 40
    Вид битрейта : Постоянный
    Битрейт : 128 Кбит/сек
    Каналы : 2 канала
    Расположение каналов : Front: L R
    Частота : 48, 0 КГц
    Метод сжатия : С потерями
    Размер потока : 606 Кбайт (15%)


    Скриншоты для ознакомления




    Как научить ребенка плавать (2015) CamRip [H.264]
    загрузка...
    Рейтинг →
     (голосов: 1, оценка 3/5, голосовать можно 1 раз )

    Другие торренты по теме:

  • Эдуард Эстивиль | . Как научить ребенка спать. Революционный метод доктора Эстивиля (2017) [DJVU]
  • Наталья Селянцева | Как научить ребенка английскому языку. Справочник для родителей (2017) [FB2]
  • С.А. Есенина | Как научить вашего ребенка быстро считать. 1-4 классы (2015) [PDF]


    • Комментарии (0):

      Информация

      Информация

        Посетители, находящиеся в группе Гости, не могут оставлять комментарии в данной новости.

        ↓ Меню




        ↓ Опрос

        Вы добавили сайт в закладки?
        Да
        Нет


        Top 10 за месяц (Книги)

        Джиллиан Майклз | Знаменитая программа Джиллиан Майклз: Стройное и здоровое тело за 30 дней (2016) [FB2]

        (скачиваний: 62)
        И.Б. Фефилова | Антивозрастная медицина. Современная энциклопедия (2015) [PDF, EPUB]

        (скачиваний: 31)
        Михаил Диденко | Русский стиль выживания. Как остаться в живых одному в лесу (2017) [PDF, FB2]

        (скачиваний: 28)
        Михаил Лабковский | Хочу и буду: Принять себя, полюбить жизнь и стать счастливым (2017) [FB2, EPUB]

        (скачиваний: 25)
        Александр Клинге | Ленин. Самая правдивая биография Ильича (2017) [FB2, EPUB]

        (скачиваний: 23)
        Евгений Старухин | Цикл «Лесовик» [4 книги. Обновляемая] (2015-2017) [FB2]

        (скачиваний: 23)
        Джек Дэниелс | От 800 метров до марафона (2014) [FB2]

        (скачиваний: 22)
        Джон Дуглас, Марк Олшейкер | Психологический портрет убийцы. Методики ФБР (2016) [FB2, EPUB]

        (скачиваний: 22)
        Давид Дубницкий | Жанровый НЮ-портрет (2016) PCRec

        (скачиваний: 21)
        Майкл Грегер | Не сдохни! Еда в борьбе за жизнь (2017) [PDF]

        (скачиваний: 20)