.
Авторизация | Регистрация
Хочешь лучшие торренты? Добавь свой email!
Добавить

Торрент скачать бесплатно

» » Екатерина Упит, Валентин Кныш | Волшебные кривые 3.0 (2015) PCRec [H.264 / 720p-LQ] скачать через торрент бесплатно




    Екатерина Упит, Валентин Кныш | Волшебные кривые 3.0 (2015) PCRec [H.264 / 720p-LQ] скачать через торрент бесплатно

    Опубликовал: Админ | Дата: 27-05-2015, 04:01 | Просмотров: 609

    Автор (режиссер): Екатерина Упит, Валентин Кныш
    Жанр: Фотообработка, цветокоррекция
    Продолжительность: 03: 27: 19
    Качество видео: PCRec
    Видеокодек: AVC
    Битрейт видео: ~396 kbps
    Размер кадра: 1280х720
    Аудиокодек: AAC 2.0
    Битрейт аудио: 32 kbps (CBR), 2 Ch, 22050 Hz
    Доп. материалы: Есть

    Описание

    УНИВЕРСАЛЬНОСТЬ:
    Принцип работы с CURVES фундаментален. Этот инструмент есть не только в Photoshop, но и в Lightroom, и не только. Работа с ними везде одинакова. То-есть изучив этот инструмент, вы сможете делать коррекцию в десятках разных программ.
    АКТУАЛЬНОCТЬ:
    Инструмент CURVES (Кривые) один из самых старых инструментов в Photoshop. Сферы его использования реально безграничны. Но при этом CURVES остается эффективным и современным средством работы в области цветокоррекции.
    ПРАКТИКА:
    На курсе вас ждет 80% практики и только 20% необходимой теории. Вы самостоятельно и пошагово, с помощью подробных примеров будете делать обработку вслед за ведущим. Такой подход дает полное понимание процесса даже полному новичку.
    ОСОЗНАННОСТЬ:
    Сейчас для работы с цветом, есть множество плагинов, множество экшенов и т.д. Цвета на фото можно менять одной кнопкой, но понимания работы с цветом это не дает. Самое интересное в это истории, что об этом Европарламент ничего не знал. Умея работать с кривыми, вы всегда будете понимать что делать и зачем.
    Необходимая теория о цвете, без которой вредна практика.
    Мода на цвет сегодня или почему именно такие цвета людям нравятся.
    Мой личный выбор цвета - что я считаю красивым, а что нет.
    Curves в Photoshop и Lightroom, и не только.
    4 разных способы “гнуть” кривые, для Lightroom и Photoshop.
    Перекрашивание. Сплит-тонирование. Разбаланс цветов.
    Ретро и винтажные эффекты. Стилизация цветом.
    Lab - мощный инструмент для тонирования и перекрашивания.
    Особенности работы с LAB пространством.
    Использования инструментов RGB и LAB в обработке одной фотографии.
    Операции с каналами - или как получить “эльфийские цвета”.
    Опитимизация: какие Actions вам понадобятся для работы.
    Бонус первый: контраст на все 100.
    Бонус второй: ещё больше магии!
    Ответы на вопросы участников курса.
    Код:
    Общее
    Полное имя : C:Волшебные кривые 3.0 - 2015Волшебные кривые 3.0.mp4
    Формат : MPEG-4
    Профиль формата : Base Media
    Идентификатор кодека : isom
    Размер файла : 644 Мбайт
    Продолжительность : 3 ч. 27 м.
    Режим общего битрейта : Переменный
    Общий поток : 434 Кбит/сек
    Дата кодирования : UTC 2015-03-31 07:44:59
    Дата пометки : UTC 2015-03-31 07:44:59
    Программа кодирования : Lavf55.33.100
    Видео
    Идентификатор : 2
    Формат : AVC
    Формат/Информация : Advanced Video Codec
    Профиль формата :Main@L3.1
    Параметр CABAC формата : Да
    Параметр ReFrames формата : 2 кадра
    Параметр GOP формата : M=1, N=25
    Идентификатор кодека : avc1
    Идентификатор кодека/Информация : Advanced Video Coding
    Продолжительность : 3 ч. 27 м.
    Битрейт : 396 Кбит/сек
    Ширина : 1280 пикселей
    Высота : 720 пикселей
    Соотношение сторон : 16:9
    Режим частоты кадров : Постоянный
    Частота кадров : 30, 000 кадров/сек
    Цветовое пространство : YUV
    Субдискретизация насыщенности : 4:2:0
    Битовая глубина : 8 бит
    Тип развёртки : Прогрессивная
    Бит/(Пиксели*Кадры) : 0.014
    Размер потока : 588 Мбайт (91%)
    Дата кодирования : UTC 2015-03-31 07:44:59
    Дата пометки : UTC 2015-03-31 07:44:59
    Аудио
    Идентификатор : 1
    Формат : AAC
    Формат/Информация : Advanced Audio Codec
    Профиль формата : LC
    Идентификатор кодека : 40
    Продолжительность : 3 ч. 27 м.
    Duration_LastFrame : -20 мс.
    Вид битрейта : Переменный
    Битрейт : 32, 0 Кбит/сек
    Максимальный битрейт : 320 Кбит/сек
    Каналы : 2 канала
    Channel(s)_Original : 1 канал
    Расположение каналов : Front: C
    Частота : 22, 05 КГц
    Метод сжатия : С потерями
    Размер потока : 47, 5 Мбайт (7%)
    Дата кодирования : UTC 2015-03-31 07:44:59
    Дата пометки : UTC 2015-03-31 07:44:59
    Скриншоты:


    Скриншоты для ознакомления




    Екатерина Упит, Валентин Кныш | Волшебные кривые 3.0 (2015) PCRec [H.264/720p-LQ]
    загрузка...
    Рейтинг →
     (голосов: 1, оценка 3/5, голосовать можно 1 раз )

    Другие торренты по теме:

  • Екатерина Упит | Обработка фотографий - ВСЁ и сразу (2014) PCRec [H.264 / 720p] скачать через торрент бесплатно
  • Екатерина Упит | Цвет, объем и краски осени (2015) PCRec[H.264] скачать через торрент бесплатно


    • Комментарии (0):

      Информация

      Информация

        Посетители, находящиеся в группе Гости, не могут оставлять комментарии в данной новости.

        ↓ Меню




        ↓ Опрос

        Вы добавили сайт в закладки?
        Да
        Нет


        Top 10 за месяц (Книги)

        Джиллиан Майклз | Знаменитая программа Джиллиан Майклз: Стройное и здоровое тело за 30 дней (2016) [FB2]

        (скачиваний: 54)
        И.Б. Фефилова | Антивозрастная медицина. Современная энциклопедия (2015) [PDF, EPUB]

        (скачиваний: 31)
        Михаил Диденко | Русский стиль выживания. Как остаться в живых одному в лесу (2017) [PDF, FB2]

        (скачиваний: 27)
        Михаил Лабковский | Хочу и буду: Принять себя, полюбить жизнь и стать счастливым (2017) [FB2, EPUB]

        (скачиваний: 24)
        Александр Клинге | Ленин. Самая правдивая биография Ильича (2017) [FB2, EPUB]

        (скачиваний: 23)
        Джек Дэниелс | От 800 метров до марафона (2014) [FB2]

        (скачиваний: 20)
        Евгений Старухин | Цикл «Лесовик» [4 книги. Обновляемая] (2015-2017) [FB2]

        (скачиваний: 20)
        Дэвид Агус | Завтра начинается сегодня. Как воспользоваться достижениями anti-age медицины (2017) [FB2, EPUB]

        (скачиваний: 20)
        Давид Дубницкий | Жанровый НЮ-портрет (2016) PCRec

        (скачиваний: 20)
        Лидия Резник | 25 любимых специй (2017) [FB2]

        (скачиваний: 19)