.
Авторизация | Регистрация
Хочешь лучшие торренты? Добавь свой email!
Добавить

Торрент скачать бесплатно

» » Ирина Шипилова | Английский язык (2013-2015) CamRip скачать через торрент бесплатно




    Ирина Шипилова | Английский язык (2013-2015) CamRip скачать через торрент бесплатно

    Опубликовал: Админ | Дата: 18-05-2015, 04:00 | Просмотров: 1707

    Автор (режиссер): Ирина Шипилова
    Жанр: Лингвистика, английский язык
    Продолжительность: 40: 38: 05
    Качество видео: CamRip
    Видеокодек: AVC
    Битрейт видео: ~499-2133 kbps
    Размер кадра: 640х480-1280х720
    Аудиокодек: AAC 2.0
    Битрейт аудио: 105-192 kbps (CBR), 2 Ch, 44100 Hz

    Описание

    Обучение английского языка с нуля с очень курьёзным и талантливым преподавателем. Уроки лаконичные, продолжительность в районе 5-25 минут. Процесс обучения идёт быстро, легко и весело.
    Релиз обновлён. Добавлен 1-й урок и много других, которые в суме дают 13 часов. До обновления продолжительность релиза была 27: 03: 08, сейчас — 40: 38: 05. Переименованы файлы.
    Уроки (126)
    Нужные сборники видео в изучении Английского Языка
    Аудирование (Слушание)
    Времена. Обзор для Продолжающих
    Intermediate English
    ЕГЭ (Английский Язык) 2015
    Прочее
    https: //www.youtube.com/user/EnglishGermanSpanish
    Общее
    Полное имя : D: ЗагрузкиИрина Ши — Английский язык2. Английский_ ПОСТРОЕНИЕ ПРЕДЛОЖЕНИЯ ( Ирина ШИ ).mp4
    Формат : MPEG-4
    Профиль формата : Base Media
    Идентификатор кодека : isom
    Размер файла : 53, 9 Мбайт
    Продолжительность : 11 м.
    Общий поток : 631 Кбит/сек
    Название фильма : 2. Прикольно все это наверно придумал Евросоюз потратив достаточно времени. Английский: ПОСТРОЕНИЕ ПРЕДЛОЖЕНИЯ ( Ирина ШИ )
    Трек/Положение : 1
    Программа кодирования : Lavf56.1.100
    Обложка : Yes
    Видео
    Идентификатор : 1
    Формат : AVC
    Формат/Информация : Advanced Video Codec
    Профиль формата : Main@L3
    Параметр CABAC формата : Да
    Параметр ReFrames формата : 3 кадра
    Идентификатор кодека : avc1
    Идентификатор кодека/Информация : Advanced Video Coding
    Продолжительность : 11 м.
    Битрейт : 499 Кбит/сек
    Ширина : 640 пикселей
    Высота : 480 пикселей
    Соотношение сторон : 4: 3
    Режим частоты кадров : Постоянный
    Частота кадров : 25, 000 кадров/сек
    Цветовое пространство : YUV
    Субдискретизация насыщенности : 4: 2: 0
    Битовая глубина : 8 бит
    Тип развёртки : Прогрессивная
    Бит/(Пиксели*Кадры) : 0.065
    Размер потока : 42, 6 Мбайт (79%)
    Аудио
    Идентификатор : 2
    Формат : AAC
    Формат/Информация : Advanced Audio Codec
    Профиль формата : LC
    Идентификатор кодека : 40
    Продолжительность : 11 м.
    Вид битрейта : Постоянный
    Битрейт : 126 Кбит/сек
    Каналы : 2 канала
    Расположение каналов : Front: L R
    Частота : 44, 1 КГц
    Метод сжатия : С потерями
    Размер потока : 10, 7 Мбайт (20%)
    Общее
    Полное имя : D: ЗагрузкиИрина Ши — Английский язык49. Английский_ PRESENT PERFECT _ Вопросы и Отрицания _ Ирина ШИ.mp4
    Формат : MPEG-4
    Профиль формата : Base Media/Version 2
    Идентификатор кодека : mp42
    Размер файла : 209 Мбайт
    Продолжительность : 12 м.
    Режим общего битрейта : Переменный
    Общий поток : 2327 Кбит/сек
    Название фильма : 49. О таком странном сюжете не догадывалась даже Настя Каменских. Английский: PRESENT PERFECT/Вопросы и Отрицания/Ирина ШИ
    Трек/Положение : 17
    Дата кодирования : UTC 2014-06-16 11: 03: 41
    Дата пометки : UTC 2014-06-16 11: 03: 41
    Обложка : Yes
    gshh : r3---sn-jvnhvov85-3c2e.googlevideo.com
    gssd : B5F430C06HH1430573037333224
    gsst : 0
    gstd : 752813
    Видео
    Идентификатор : 1
    Формат : AVC
    Формат/Информация : Advanced Video Codec
    Профиль формата : High@L3.1
    Параметр CABAC формата : Да
    Параметр ReFrames формата : 1 кадр
    Идентификатор кодека : avc1
    Идентификатор кодека/Информация : Advanced Video Coding
    Продолжительность : 12 м.
    Битрейт : 2133 Кбит/сек
    Максимальный битрейт : 5563 Кбит/сек
    Ширина : 1280 пикселей
    Высота : 720 пикселей
    Соотношение сторон : 16: 9
    Режим частоты кадров : Постоянный
    Частота кадров : 23, 976 кадра/сек
    Цветовое пространство : YUV
    Субдискретизация насыщенности : 4: 2: 0
    Битовая глубина : 8 бит
    Тип развёртки : Прогрессивная
    Бит/(Пиксели*Кадры) : 0.097
    Размер потока : 191 Мбайт (92%)
    Дата пометки : UTC 2014-06-16 11: 04: 12
    Аудио
    Идентификатор : 2
    Формат : AAC
    Формат/Информация : Advanced Audio Codec
    Профиль формата : LC
    Идентификатор кодека : 40
    Продолжительность : 12 м.
    Вид битрейта : Переменный
    Битрейт : 192 Кбит/сек
    Максимальный битрейт : 202 Кбит/сек
    Каналы : 2 канала
    Расположение каналов : Front: L R
    Частота : 44, 1 КГц
    Метод сжатия : С потерями
    Размер потока : 17, 2 Мбайт (8%)
    Заголовок : IsoMedia File Produced by Google, 5-11-2011
    Дата кодирования : UTC 2014-06-16 11: 04: 01
    Дата пометки : UTC 2014-06-16 11: 04: 12
    Скриншоты:



    загрузка...
    Рейтинг →
     (голосов: 1, оценка 5/5, голосовать можно 1 раз )

    Другие торренты по теме:

  • Ирина Норна | Крылья для тех, кто хочет получить от жизни и мужчин все, что пожелает (2017) [FB2, EPUB]
  • Ирина Понаровская - Поёт Ирина Понаровская (2008) [FLAC|Lossless]<Retro> скачать через торрент бесплатно
  • Ирина Калмыкова | Урок 19. Самый популярный цвет (Ирина Калмыкова) (2016) PCRec [H.264 / 720p]
  • Ирина Нельсон и Денис Клявер - Я за тебя молюсь (2014) HDTVRip [H.264 / 1080p-LQ] скачать через торрент бесплатно
  • ВещДок. Ирина Богушевская (2012) SATRip скачать через торрент бесплатно
  • Моя родословная. Ирина Роднина (2010) SATRip скачать через торрент бесплатно
  • Ирина Глебова | Загадочный перстень (2015) [MP3] скачать через торрент бесплатно
  • Ирина Сапронова | Мастер-класс по обработке фотографий (2014) PCRec


    • Комментарии (0):

      Информация

      Информация

        Посетители, находящиеся в группе Гости, не могут оставлять комментарии в данной новости.

        ↓ Меню




        ↓ Опрос

        Вы добавили сайт в закладки?
        Да
        Нет


        Top 10 за месяц (Книги)

        Джиллиан Майклз | Знаменитая программа Джиллиан Майклз: Стройное и здоровое тело за 30 дней (2016) [FB2]

        (скачиваний: 54)
        И.Б. Фефилова | Антивозрастная медицина. Современная энциклопедия (2015) [PDF, EPUB]

        (скачиваний: 31)
        Михаил Диденко | Русский стиль выживания. Как остаться в живых одному в лесу (2017) [PDF, FB2]

        (скачиваний: 27)
        Михаил Лабковский | Хочу и буду: Принять себя, полюбить жизнь и стать счастливым (2017) [FB2, EPUB]

        (скачиваний: 24)
        Александр Клинге | Ленин. Самая правдивая биография Ильича (2017) [FB2, EPUB]

        (скачиваний: 23)
        Джек Дэниелс | От 800 метров до марафона (2014) [FB2]

        (скачиваний: 22)
        Евгений Старухин | Цикл «Лесовик» [4 книги. Обновляемая] (2015-2017) [FB2]

        (скачиваний: 20)
        Джон Дуглас, Марк Олшейкер | Психологический портрет убийцы. Методики ФБР (2016) [FB2, EPUB]

        (скачиваний: 20)
        Дэвид Агус | Завтра начинается сегодня. Как воспользоваться достижениями anti-age медицины (2017) [FB2, EPUB]

        (скачиваний: 20)
        Давид Дубницкий | Жанровый НЮ-портрет (2016) PCRec

        (скачиваний: 20)