.
Авторизация | Регистрация
Хочешь лучшие торренты? Добавь свой email!
Добавить

Торрент скачать бесплатно

» » Paul Levesque | WWE Power Series: Triple H (2014) DVDRip [H.264] [EN] торрент скачать бесплатно




    Paul Levesque | WWE Power Series: Triple H (2014) DVDRip [H.264] [EN] торрент скачать бесплатно

    Опубликовал: Админ | Дата: 13-11-2017, 05:00 | Просмотров: 0

    Автор (режиссер): Paul Levesque
    Производство: США
    Жанр: Фитнес

    Описание

    Если вы ищете тренировочную систему которая позволит уничтожить жир, и построит крепкое как скала тело, тогда Вы встретили то что нужно! Войдите в центр ринга и вместе с чемпионом, суперзвездой и легендой реслинга Полом Левеком, присоединитесь к тренировкам которые изменят вашу жизнь. Созданная всемирно известным тренером Джо Де Франко, эта мощная система включает тренировки на верхнюю и нижнюю части тела, кардиотренировки и тренировки для развития подвижности, а так же четырехнедельный календарь, для максимального увеличения силы, гибкости и функциональной выносливости с помощью серий серьезных упражнений. Сражайтесь с лучшими и постройте точёное тело для предстоящей схватки!
    Продолжительность: 01: 41: 40
    Качество видео: DVDRip
    Перевод: Отсутствует
    Язык озвучки: Английский
    Видео: AVC/H.264, 640x360, ~1084 Kbps
    Аудио: AAC, 2 ch, 96 Kbps, VBR

    Power Series with Triple HMobility.mp4
    Format : MPEG-4
    Format profile : Base Media/Version 2
    Codec ID : mp42 (mp42/isom)
    File size : 120 MiB
    Duration : 14 min 6 s
    Overall bit rate mode : Variable
    Overall bit rate : 1 186 kb/s
    Video
    ID : 1
    Format : AVC
    Format/Info : Advanced Video Codec
    Format profile : Main@L4
    Format settings : CABAC/4 Ref Frames
    Format settings, CABAC : Yes
    Format settings, RefFrames : 4 frames
    Codec ID : avc1
    Codec ID/Info : Advanced Video Coding
    Duration : 14 min 6 s
    Source duration : 14 min 6 s
    Bit rate : 1 084 kb/s
    Width : 640 pixels
    Height : 360 pixels
    Display aspect ratio : 16: 9
    Frame rate mode : Variable
    Frame rate : 29.970 (29970/1000) FPS
    Minimum frame rate : 19.978 FPS
    Maximum frame rate : 63.966 FPS
    Color space : YUV
    Chroma subsampling : 4: 2: 0
    Bit depth : 8 bits
    Scan type : Progressive
    Bits/(Pixel*Frame) : 0.157
    Stream size : 109 MiB (91%)
    Source stream size : 109 MiB (91%)
    Language : English
    Color range : Limited
    Color primaries : BT.601 NTSC
    Transfer characteristics : BT.709
    Matrix coefficients : BT.601
    mdhd_Duration : 846670
    Audio
    ID : 2
    Format : AAC
    Format/Info : Advanced Audio Codec
    Format profile : LC
    Codec ID : mp4a-40-2
    Duration : 14 min 5 s
    Bit rate mode : Variable
    Bit rate : 96.0 kb/s
    Channel(s) : 2 channels
    Channel positions : Front: L R
    Sampling rate : 48.0 kHz
    Frame rate : 46.875 FPS (1024 SPF)
    Compression mode : Lossy
    Stream size : 9.69 MiB (8%)
    Language : English


    Paul Levesque | WWE Power Series: Triple H (2014) DVDRip [H.264] [EN]
    загрузка...
    Рейтинг →
     (голосов: 1, оценка 3/5, голосовать можно 1 раз )

    Другие торренты по теме:

  • Paul Webster and McAree and Clancy - Snake (Casey Rasch Remix) (2017) [MP3|320 Kbps] <Trance>
  • Paul Carrack - The Best Of Paul Carrack (2014) Remastered [MP3|320 кб / с]<Pop Rock, Soft Rock> скачать через торрент бесплатно
  • Paul Simon - The Paul Simon Anthology (1993) Unofficial Release [APE|Lossless|image + .cue] <Folk Rock, Acoustic>
  • Paul Anka - The Real... Paul Anka (2014) 3CD [FLAC|Lossless|tracks + .cue] <Pop>
  • VA - Paul Oakenfold - Dreamstate Volume One (Mixed by Paul Oakenfold) (2017) [FLAC|Lossless|WEB-DL|tracks] <Trance>
  • VA - Paul Oakenfold - Dreamstate Volume One (Mixed by Paul Oakenfold) (2017) [MP3|320 Kbps] <Trance, Progressive Trance, Uplifting Trance>
  • Paul Haslinger & VA - Адреналин / Crank (Original Score + Original Soundtrack) (2006) [MP3|320 кб / с]<Soundtrack>
  • Paul Desmond Quartet With Jim Hall - First Place Again (2012) [FLAC|Lossless]<Jazz, Cool>


    • Комментарии (0):

      Информация

      Информация

        Посетители, находящиеся в группе Гости, не могут оставлять комментарии в данной новости.

        ↓ Меню




        ↓ Опрос

        Вы добавили сайт в закладки?
        Да
        Нет


        Top 10 за месяц (Книги)

        Андрей Сазонов | Мифы о нашем теле. Научный подход к примитивным вопросам (2017) [FB2]

        (скачиваний: 29)
        Элла Берту, Сьюзен Элдеркин | Книга как лекарство. Скорая литературная помощь от А до Я (2016) [FB2, EPUB]

        (скачиваний: 25)
        Оуэйн Сервис, Рори Галлахер | Начинай с малого. Научно доказанная система достижения больших целей (2018) [PDF, FB2, EPUB]

        (скачиваний: 22)
        Григорий-Азиз | Фишки Ворда и Экселя [Word and Excel] (2017) PCRec [H.264]

        (скачиваний: 21)
        Юрий Подольский | Делаем сами коптильни, грили, мангалы, уличные печи (2017) [PDF, FB2, EPUB]

        (скачиваний: 21)
        Юрий Морозов | Ремонт дачного дома своими руками. Полное руководство (2017) [PDF]

        (скачиваний: 20)
        Дмитрий Петров, Алексей Кржижевский | Серия: Полиглот. Выучим иностранный язык за 16 часов [5 книг] (2014-2015) [PDF, DJVU]

        (скачиваний: 20)
        Кевин Келли | Неизбежно. 12 технологических трендов, которые определяют наше будущее (2017) [PDF, EPUB, MOBI]

        (скачиваний: 20)
        Наталья Корикова | Полезные и вкусные бутерброды. Алгоритм приготовления и рецепты (2017) [PDF]

        (скачиваний: 19)
        Екатерина Юша | Графоман или писатель Пишем свою первую книгу (2017) [FB2, EPUB]

        (скачиваний: 18)